  0
SECTION
  2
HEADER
  9
$ACADVER
  1
AC1015
  9
$ACADMAINTVER
 70
     6
  9
$DWGCODEPAGE
  3
ANSI_932
  9
$INSBASE
 10
0.0
 20
0.0
 30
0.0
  9
$EXTMIN
 10
-110.0
 20
-20.0
 30
0.0
  9
$EXTMAX
 10
110.0
 20
20.0
 30
0.0
  9
$LIMMIN
 10
-194.0
 20
-135.75
  9
$LIMMAX
 10
195.0
 20
135.75
  9
$ORTHOMODE
 70
     0
  9
$REGENMODE
 70
     1
  9
$FILLMODE
 70
     1
  9
$QTEXTMODE
 70
     0
  9
$MIRRTEXT
 70
     1
  9
$LTSCALE
 40
1.0
  9
$ATTMODE
 70
     1
  9
$TEXTSIZE
 40
3.2
  9
$TRACEWID
 40
0.05
  9
$TEXTSTYLE
  7
MX_NOTE_STANDARD
  9
$CLAYER
  8
DEFPOINTS
  9
$CELTYPE
  6
CONTINUOUS
  9
$CECOLOR
 62
   256
  9
$CELTSCALE
 40
1.0
  9
$DISPSILH
 70
     0
  9
$DIMSCALE
 40
1.0
  9
$DIMASZ
 40
2.5
  9
$DIMEXO
 40
2.0
  9
$DIMDLI
 40
3.75
  9
$DIMRND
 40
0.0
  9
$DIMDLE
 40
0.0
  9
$DIMEXE
 40
1.0
  9
$DIMTP
 40
0.0
  9
$DIMTM
 40
0.0
  9
$DIMTXT
 40
4.1656
  9
$DIMCEN
 40
2.5
  9
$DIMTSZ
 40
0.0
  9
$DIMTOL
 70
     0
  9
$DIMLIM
 70
     0
  9
$DIMTIH
 70
     0
  9
$DIMTOH
 70
     0
  9
$DIMSE1
 70
     0
  9
$DIMSE2
 70
     0
  9
$DIMTAD
 70
     1
  9
$DIMZIN
 70
     8
  9
$DIMBLK
  1

  9
$DIMASO
 70
     1
  9
$DIMSHO
 70
     1
  9
$DIMPOST
  1

  9
$DIMAPOST
  1

  9
$DIMALT
 70
     0
  9
$DIMALTD
 70
     4
  9
$DIMALTF
 40
0.03937
  9
$DIMLFAC
 40
1.0
  9
$DIMTOFL
 70
     1
  9
$DIMTVP
 40
0.0
  9
$DIMTIX
 70
     0
  9
$DIMSOXD
 70
     0
  9
$DIMSAH
 70
     1
  9
$DIMBLK1
  1
_OPEN30
  9
$DIMBLK2
  1
_OPEN30
  9
$DIMSTYLE
  2
MXDIMSTYLE
  9
$DIMCLRD
 70
     0
  9
$DIMCLRE
 70
     0
  9
$DIMCLRT
 70
     0
  9
$DIMTFAC
 40
1.0
  9
$DIMGAP
 40
1.0
  9
$DIMJUST
 70
     0
  9
$DIMSD1
 70
     0
  9
$DIMSD2
 70
     0
  9
$DIMTOLJ
 70
     0
  9
$DIMTZIN
 70
     0
  9
$DIMALTZ
 70
     0
  9
$DIMALTTZ
 70
     0
  9
$DIMUPT
 70
     0
  9
$DIMDEC
 70
     2
  9
$DIMTDEC
 70
     2
  9
$DIMALTU
 70
     2
  9
$DIMALTTD
 70
     4
  9
$DIMTXSTY
  7
MX_NOTE_STANDARD
  9
$DIMAUNIT
 70
     0
  9
$DIMADEC
 70
     0
  9
$DIMALTRND
 40
0.0
  9
$DIMAZIN
 70
     0
  9
$DIMDSEP
 70
    46
  9
$DIMATFIT
 70
     3
  9
$DIMFRAC
 70
     0
  9
$DIMLDRBLK
  1
_OPEN30
  9
$DIMLUNIT
 70
     2
  9
$DIMLWD
 70
    -2
  9
$DIMLWE
 70
    -2
  9
$DIMTMOVE
 70
     0
  9
$LUNITS
 70
     2
  9
$LUPREC
 70
     4
  9
$SKETCHINC
 40
0.1
  9
$FILLETRAD
 40
0.0
  9
$AUNITS
 70
     0
  9
$AUPREC
 70
     0
  9
$MENU
  1
acad
  9
$ELEVATION
 40
0.0
  9
$PELEVATION
 40
0.0
  9
$THICKNESS
 40
0.0
  9
$LIMCHECK
 70
     0
  9
$CHAMFERA
 40
0.0
  9
$CHAMFERB
 40
0.0
  9
$CHAMFERC
 40
0.0
  9
$CHAMFERD
 40
0.0
  9
$SKPOLY
 70
     0
  9
$TDCREATE
 40
2456709.693043982
  9
$TDUCREATE
 40
0.000000000
  9
$TDUPDATE
 40
2456709.693043982
  9
$TDUUPDATE
 40
0.000000000
  9
$TDINDWG
 40
0.0000000000
  9
$TDUSRTIMER
 40
0.0000000000
  9
$USRTIMER
 70
     1
  9
$ANGBASE
 50
0.0
  9
$ANGDIR
 70
     0
  9
$PDMODE
 70
     0
  9
$PDSIZE
 40
0.0
  9
$PLINEWID
 40
0.0
  9
$SPLFRAME
 70
     0
  9
$SPLINETYPE
 70
     6
  9
$SPLINESEGS
 70
     8
  9
$HANDSEED
  5
352
  9
$SURFTAB1
 70
     6
  9
$SURFTAB2
 70
     6
  9
$SURFTYPE
 70
     6
  9
$SURFU
 70
     6
  9
$SURFV
 70
     6
  9
$UCSBASE
  2

  9
$UCSNAME
  2

  9
$UCSORG
 10
0.0
 20
0.0
 30
0.0
  9
$UCSXDIR
 10
1.0
 20
0.0
 30
0.0
  9
$UCSYDIR
 10
0.0
 20
1.0
 30
0.0
  9
$UCSORTHOREF
  2

  9
$UCSORTHOVIEW
 70
     0
  9
$UCSORGTOP
 10
0.0
 20
0.0
 30
0.0
  9
$UCSORGBOTTOM
 10
0.0
 20
0.0
 30
0.0
  9
$UCSORGLEFT
 10
0.0
 20
0.0
 30
0.0
  9
$UCSORGRIGHT
 10
0.0
 20
0.0
 30
0.0
  9
$UCSORGFRONT
 10
0.0
 20
0.0
 30
0.0
  9
$UCSORGBACK
 10
0.0
 20
0.0
 30
0.0
  9
$PUCSBASE
  2

  9
$PUCSNAME
  2

  9
$PUCSORG
 10
0.0
 20
0.0
 30
0.0
  9
$PUCSXDIR
 10
1.0
 20
0.0
 30
0.0
  9
$PUCSYDIR
 10
0.0
 20
1.0
 30
0.0
  9
$PUCSORTHOREF
  2

  9
$PUCSORTHOVIEW
 70
     0
  9
$PUCSORGTOP
 10
0.0
 20
0.0
 30
0.0
  9
$PUCSORGBOTTOM
 10
0.0
 20
0.0
 30
0.0
  9
$PUCSORGLEFT
 10
0.0
 20
0.0
 30
0.0
  9
$PUCSORGRIGHT
 10
0.0
 20
0.0
 30
0.0
  9
$PUCSORGFRONT
 10
0.0
 20
0.0
 30
0.0
  9
$PUCSORGBACK
 10
0.0
 20
0.0
 30
0.0
  9
$USERI1
 70
     0
  9
$USERI2
 70
     0
  9
$USERI3
 70
     0
  9
$USERI4
 70
     0
  9
$USERI5
 70
     0
  9
$USERR1
 40
0.0
  9
$USERR2
 40
0.0
  9
$USERR3
 40
0.0
  9
$USERR4
 40
0.0
  9
$USERR5
 40
0.0
  9
$WORLDVIEW
 70
     1
  9
$SHADEDGE
 70
     3
  9
$SHADEDIF
 70
    70
  9
$TILEMODE
 70
     1
  9
$MAXACTVP
 70
    16
  9
$PINSBASE
 10
0.0
 20
0.0
 30
0.0
  9
$PLIMCHECK
 70
     0
  9
$PEXTMIN
 10
1.000000E+20
 20
1.000000E+20
 30
1.000000E+20
  9
$PEXTMAX
 10
-1.000000E+20
 20
-1.000000E+20
 30
-1.000000E+20
  9
$PLIMMIN
 10
0.0
 20
0.0
  9
$PLIMMAX
 10
12.0
 20
9.0
  9
$UNITMODE
 70
     0
  9
$VISRETAIN
 70
     0
  9
$PLINEGEN
 70
     1
  9
$PSLTSCALE
 70
     0
  9
$TREEDEPTH
 70
  3020
  9
$CMLSTYLE
  2
Standard
  9
$CMLJUST
 70
     0
  9
$CMLSCALE
 40
1.0
  9
$PROXYGRAPHICS
 70
     0
  9
$MEASUREMENT
 70
     1
  9
$CELWEIGHT
370
     0
  9
$ENDCAPS
280
     0
  9
$JOINSTYLE
280
     0
  9
$LWDISPLAY
290
     0
  9
$INSUNITS
 70
     0
  9
$HYPERLINKBASE
  1

  9
$STYLESHEET
  1

  9
$XEDIT
290
     1
  9
$CEPSNTYPE
380
     0
  9
$PSTYLEMODE
290
     1
  9
$FINGERPRINTGUID
  2

  9
$VERSIONGUID
  2

  9
$EXTNAMES
290
     1
  9
$PSVPSCALE
 40
0.0
  0
ENDSEC
  0
SECTION
  2
CLASSES
  0
CLASS
  1
LWPOLYLINE
  2
AcDbPolyline
  3
AutoCAD 2000
 90
        0
280
     0
281
     1
  0
CLASS
  1
IMAGE
  2
AcDbRasterImage
  3
ISM
 90
      127
280
     0
281
     1
  0
CLASS
  1
OLE2FRAME
  2
AcDbOle2Frame
  3
AutoCAD 2000
 90
        0
280
     0
281
     1
  0
CLASS
  1
HATCH
  2
AcDbHatch
  3
AutoCAD 2000
 90
        0
280
     0
281
     1
  0
CLASS
  1
DICTIONARYVAR
  2
AcDbDictionaryVar
  3
AutoCAD 2000
 90
        0
280
     0
281
     0
  0
CLASS
  1
RASTERVARIABLES
  2
AcDbRasterVariables
  3
ISM
 90
        0
280
     0
281
     0
  0
CLASS
  1
IMAGEDEF
  2
AcDbRasterImageDef
  3
ISM
 90
        0
280
     0
281
     0
  0
CLASS
  1
IMAGEDEF_REACTOR
  2
AcDbRasterImageDefReactor
  3
ISM
 90
        1
280
     0
281
     0
  0
CLASS
  1
IDBUFFER
  2
AcDbIdBuffer
  3
AutoCAD 2000
 90
        0
280
     0
281
     0
  0
CLASS
  1
SPATIAL_FILTER
  2
AcDbSpatialFilter
  3
AutoCAD 2000
 90
        0
280
     0
281
     0
  0
CLASS
  1
XRECORD
  2
AcDbXrecord
  3
AutoCAD 2000
 90
        0
280
     0
281
     0
  0
CLASS
  1
SORTENTSTABLE
  2
AcDbSortentsTable
  3
AutoCAD 2000
 90
        0
280
     0
281
     0
  0
CLASS
  1
LAYER_INDEX
  2
AcDbLayerIndex
  3
AutoCAD 2000
 90
        0
280
     0
281
     0
  0
CLASS
  1
SPATIAL_INDEX
  2
AcDbSpatialIndex
  3
AutoCAD 2000
 90
        0
280
     0
281
     0
  0
CLASS
  1
OBJECT_PTR
  2
CAseDLPNTableRecord
  3
"ASE-LPNTableRecord"
 90
        1
280
     0
281
     0
  0
CLASS
  1
LAYOUT
  2
AcDbLayout
  3
AutoCAD 2000
 90
        0
280
     0
281
     0
  0
CLASS
  1
PLOTSETTINGS
  2
AcDbPlotSettings
  3
AutoCAD 2000
 90
        0
280
     0
281
     0
  0
CLASS
  1
ACDBDICTIONARYWDFLT
  2
AcDbDictionaryWithDefault
  3
AutoCAD 2000
 90
        0
280
     0
281
     0
  0
CLASS
  1
ACDBPLACEHOLDER
  2
AcDbPlaceHolder
  3
AutoCAD 2000
 90
        0
280
     0
281
     0
  0
ENDSEC
  0
SECTION
  2
TABLES
  0
TABLE
  2
VPORT
  5
7
100
AcDbSymbolTable
 70
     1
  0
VPORT
  5
15
100
AcDbSymbolTableRecord
100
AcDbViewportTableRecord
  2
*ACTIVE
 70
     0
 10
0.0
 20
0.0
 11
1.0
 21
1.0
 12
0.5
 22
0.0
 13
0.0
 23
0.0
 14
1.0
 24
1.0
 15
0.0
 25
0.0
 16
0.0
 26
0.0
 36
1.0
 17
0.0
 27
0.0
 37
0.0
 40
274.215
 41
1.732051
 42
50.0
 43
0.0
 44
0.0
 50
0.0
 51
0.0
 71
     0
 72
   100
 73
     1
 74
     1
 75
     0
 76
     0
 77
     0
 78
     0
281
     0
 65
     0
110
0.0
120
0.0
130
0.0
111
1.0
121
0.0
131
0.0
112
0.0
122
1.0
132
0.0
345
0
346
0
 79
     0
146
0.0
  0
ENDTAB
  0
TABLE
  2
LTYPE
  5
4
100
AcDbSymbolTable
 70
     6
  0
LTYPE
  5
11
100
AcDbSymbolTableRecord
100
AcDbLinetypeTableRecord
  2
BYBLOCK
 70
    64
  3

 72
    65
 73
     0
 40
0.0
  0
LTYPE
  5
12
100
AcDbSymbolTableRecord
100
AcDbLinetypeTableRecord
  2
BYLAYER
 70
    64
  3

 72
    65
 73
     0
 40
0.0
  0
LTYPE
  5
13
100
AcDbSymbolTableRecord
100
AcDbLinetypeTableRecord
  2
CONTINUOUS
 70
    64
  3
Solid line
 72
    65
 73
     0
 40
0.0
  0
LTYPE
  5
44
100
AcDbSymbolTableRecord
100
AcDbLinetypeTableRecord
  2
NON_PLOTING
 70
     0
  3
Solid line
 72
    65
 73
     0
 40
0.0
  0
LTYPE
  5
133
100
AcDbSymbolTableRecord
100
AcDbLinetypeTableRecord
  2
PHANTOM
 70
    64
  3
Phantom ______  __  __  ______  __  __  ______
 72
    65
 73
     6
 40
63.5
 49
31.75
 74
     0
 49
-6.35
 74
     0
 49
6.35
 74
     0
 49
-6.35
 74
     0
 49
6.35
 74
     0
 49
-6.35
 74
     0
  0
LTYPE
  5
175
100
AcDbSymbolTableRecord
100
AcDbLinetypeTableRecord
  2
CENTER
 70
    64
  3
Center ____ _ ____ _ ____ _ ____ _ ____ _ ____
 72
    65
 73
     4
 40
50.8
 49
31.75
 74
     0
 49
-6.35
 74
     0
 49
6.35
 74
     0
 49
-6.35
 74
     0
  0
ENDTAB
  0
TABLE
  2
LAYER
  5
2
100
AcDbSymbolTable
 70
     4
  0
LAYER
  5
14
100
AcDbSymbolTableRecord
100
AcDbLayerTableRecord
  2
0
 70
     0
 62
     7
  6
CONTINUOUS
290
     1
370
    -3
390
1D
  0
LAYER
  5
23
100
AcDbSymbolTableRecord
100
AcDbLayerTableRecord
  2
DEFPOINTS
 70
     0
 62
     7
  6
CONTINUOUS
290
     0
370
    -3
390
1D
  0
LAYER
  5
24
100
AcDbSymbolTableRecord
100
AcDbLayerTableRecord
  2
PV
 70
     0
 62
     7
  6
CONTINUOUS
290
     1
370
    -3
390
1D
  0
LAYER
  5
25
100
AcDbSymbolTableRecord
100
AcDbLayerTableRecord
  2
WV
 70
     0
 62
     7
  6
CONTINUOUS
290
     1
370
    -3
390
1D
  0
ENDTAB
  0
TABLE
  2
STYLE
  5
3
100
AcDbSymbolTable
 70
     7
  0
STYLE
  5
17
100
AcDbSymbolTableRecord
100
AcDbTextStyleTableRecord
  2
MX_NOTE_STANDARD
 70
     0
 40
0.0
 41
1.0
 50
0.0
 71
     0
 42
3.2
  3
txt.shx
  4
extfont.shx
  0
STYLE
  5
C4
100
AcDbSymbolTableRecord
100
AcDbTextStyleTableRecord
  2
MX_DIMTXSTY_2
 70
     0
 40
0.0
 41
1.1
 50
0.0
 71
     0
 42
3.2
  3
txt.shx
  4
extfont.shx
  0
STYLE
  5
D1
100
AcDbSymbolTableRecord
100
AcDbTextStyleTableRecord
  2
MX_DIMTXSTY_3
 70
     0
 40
0.0
 41
1.3
 50
0.0
 71
     0
 42
3.2
  3
txt.shx
  4
extfont.shx
  0
STYLE
  5
103
100
AcDbSymbolTableRecord
100
AcDbTextStyleTableRecord
  2
MX_DIMTXSTY_4
 70
     0
 40
0.0
 41
1.05
 50
0.0
 71
     0
 42
3.2
  3
txt.shx
  4
extfont.shx
  0
STYLE
  5
110
100
AcDbSymbolTableRecord
100
AcDbTextStyleTableRecord
  2
MX_DIMTXSTY_5
 70
     0
 40
0.0
 41
1.25
 50
0.0
 71
     0
 42
3.2
  3
txt.shx
  4
extfont.shx
  0
STYLE
  5
1BF
100
AcDbSymbolTableRecord
100
AcDbTextStyleTableRecord
  2
MX_DIMTXSTY_6
 70
     0
 40
0.0
 41
1.2
 50
0.0
 71
     0
 42
3.2
  3
txt.shx
  4
extfont.shx
  0
STYLE
  5
288
100
AcDbSymbolTableRecord
100
AcDbTextStyleTableRecord
  2
MX_DIMTXSTY_7
 70
     0
 40
0.0
 41
0.95
 50
0.0
 71
     0
 42
3.2
  3
txt.shx
  4
extfont.shx
  0
ENDTAB
  0
TABLE
  2
VIEW
  5
5
100
AcDbSymbolTable
 70
     0
  0
ENDTAB
  0
TABLE
  2
UCS
  5
6
100
AcDbSymbolTable
 70
     0
  0
ENDTAB
  0
TABLE
  2
APPID
  5
8
100
AcDbSymbolTable
 70
     1
  0
APPID
  5
16
100
AcDbSymbolTableRecord
100
AcDbRegAppTableRecord
  2
ACAD
 70
     0
  0
ENDTAB
  0
TABLE
  2
DIMSTYLE
  5
9
100
AcDbSymbolTable
 70
     1
100
AcDbDimStyleTable
 71
     0
  0
DIMSTYLE
105
18
100
AcDbSymbolTableRecord
100
AcDbDimStyleTableRecord
  2
MXDIMSTYLE
 70
     0
  3

  4

 40
1.0
 41
2.5
 42
2.0
 43
3.75
 44
1.0
 45
0.0
 46
0.0
 47
0.0
 48
0.0
 71
     0
 72
     0
 73
     0
 74
     0
 75
     0
 76
     0
 77
     1
 78
     8
 79
     0
140
4.1656
141
2.5
142
0.0
143
0.03937
144
1.0
145
0.0
146
1.0
147
1.0
148
0.0
170
     0
171
     4
172
     1
173
     1
174
     0
175
     0
176
     0
177
     0
178
     0
179
     0
271
     2
272
     2
273
     2
274
     4
275
     0
276
     0
277
     2
278
    46
279
     0
280
     0
281
     0
282
     0
283
     0
284
     0
285
     0
286
     0
288
     0
289
     3
340
17
341
2B
342
0
343
2B
344
2B
371
    -2
372
    -2
  0
ENDTAB
  0
TABLE
  2
BLOCK_RECORD
  5
1
100
AcDbSymbolTable
 70
    27
  0
BLOCK_RECORD
  5
A
100
AcDbSymbolTableRecord
100
AcDbBlockTableRecord
  2
*MODEL_SPACE
340
20
  0
BLOCK_RECORD
  5
B
100
AcDbSymbolTableRecord
100
AcDbBlockTableRecord
  2
*PAPER_SPACE
340
21
  0
BLOCK_RECORD
  5
26
100
AcDbSymbolTableRecord
100
AcDbBlockTableRecord
  2
MS_1
340
0
  0
BLOCK_RECORD
  5
27
100
AcDbSymbolTableRecord
100
AcDbBlockTableRecord
  2
MS_2
340
0
  0
BLOCK_RECORD
  5
28
100
AcDbSymbolTableRecord
100
AcDbBlockTableRecord
  2
VF1010
340
0
  0
BLOCK_RECORD
  5
29
100
AcDbSymbolTableRecord
100
AcDbBlockTableRecord
  2
VF1016
340
0
  0
BLOCK_RECORD
  5
2A
100
AcDbSymbolTableRecord
100
AcDbBlockTableRecord
  2
VF1025
340
0
  0
BLOCK_RECORD
  5
2B
100
AcDbSymbolTableRecord
100
AcDbBlockTableRecord
  2
_OPEN30
340
0
102
{BLKREFS
331
C2
331
C3
331
CF
331
D0
331
DD
331
DE
331
EA
331
EB
331
F5
331
F6
331
101
331
102
331
10E
331
10F
331
180
331
181
331
18C
331
18D
331
199
331
19A
331
1A6
331
1A7
331
1B1
331
1B2
331
1BD
331
1BE
331
1CA
331
1CB
331
23D
331
23E
331
249
331
24A
331
256
331
257
331
263
331
264
331
26E
331
26F
331
27A
331
27B
331
286
331
287
102
}
  0
BLOCK_RECORD
  5
BE
100
AcDbSymbolTableRecord
100
AcDbBlockTableRecord
  2
*D6
340
0
  0
BLOCK_RECORD
  5
CB
100
AcDbSymbolTableRecord
100
AcDbBlockTableRecord
  2
*D7
340
0
  0
BLOCK_RECORD
  5
D8
100
AcDbSymbolTableRecord
100
AcDbBlockTableRecord
  2
*D8
340
0
  0
BLOCK_RECORD
  5
E5
100
AcDbSymbolTableRecord
100
AcDbBlockTableRecord
  2
*D9
340
0
  0
BLOCK_RECORD
  5
F2
100
AcDbSymbolTableRecord
100
AcDbBlockTableRecord
  2
*D10
340
0
  0
BLOCK_RECORD
  5
FD
100
AcDbSymbolTableRecord
100
AcDbBlockTableRecord
  2
*D11
340
0
  0
BLOCK_RECORD
  5
10A
100
AcDbSymbolTableRecord
100
AcDbBlockTableRecord
  2
*D12
340
0
  0
BLOCK_RECORD
  5
17C
100
AcDbSymbolTableRecord
100
AcDbBlockTableRecord
  2
*D13
340
0
  0
BLOCK_RECORD
  5
188
100
AcDbSymbolTableRecord
100
AcDbBlockTableRecord
  2
*D14
340
0
  0
BLOCK_RECORD
  5
194
100
AcDbSymbolTableRecord
100
AcDbBlockTableRecord
  2
*D15
340
0
  0
BLOCK_RECORD
  5
1A1
100
AcDbSymbolTableRecord
100
AcDbBlockTableRecord
  2
*D16
340
0
  0
BLOCK_RECORD
  5
1AE
100
AcDbSymbolTableRecord
100
AcDbBlockTableRecord
  2
*D17
340
0
  0
BLOCK_RECORD
  5
1B9
100
AcDbSymbolTableRecord
100
AcDbBlockTableRecord
  2
*D18
340
0
  0
BLOCK_RECORD
  5
1C6
100
AcDbSymbolTableRecord
100
AcDbBlockTableRecord
  2
*D19
340
0
  0
BLOCK_RECORD
  5
239
100
AcDbSymbolTableRecord
100
AcDbBlockTableRecord
  2
*D20
340
0
  0
BLOCK_RECORD
  5
245
100
AcDbSymbolTableRecord
100
AcDbBlockTableRecord
  2
*D21
340
0
  0
BLOCK_RECORD
  5
251
100
AcDbSymbolTableRecord
100
AcDbBlockTableRecord
  2
*D22
340
0
  0
BLOCK_RECORD
  5
25E
100
AcDbSymbolTableRecord
100
AcDbBlockTableRecord
  2
*D23
340
0
  0
BLOCK_RECORD
  5
26B
100
AcDbSymbolTableRecord
100
AcDbBlockTableRecord
  2
*D24
340
0
  0
BLOCK_RECORD
  5
276
100
AcDbSymbolTableRecord
100
AcDbBlockTableRecord
  2
*D25
340
0
  0
BLOCK_RECORD
  5
282
100
AcDbSymbolTableRecord
100
AcDbBlockTableRecord
  2
*D26
340
0
  0
ENDTAB
  0
ENDSEC
  0
SECTION
  2
BLOCKS
  0
BLOCK
  5
D
100
AcDbEntity
  8
0
390
0
100
AcDbBlockBegin
  2
*MODEL_SPACE
 70
     0
 10
0.0
 20
0.0
 30
0.0
  3
*MODEL_SPACE
  1

  0
ENDBLK
  5
E
100
AcDbEntity
  8
0
390
0
100
AcDbBlockEnd
  0
BLOCK
  5
F
100
AcDbEntity
 67
     1
  8
0
390
0
100
AcDbBlockBegin
  2
*PAPER_SPACE
 70
     0
 10
0.0
 20
0.0
 30
0.0
  3
*PAPER_SPACE
  1

  0
ENDBLK
  5
10
100
AcDbEntity
 67
     1
  8
0
390
0
100
AcDbBlockEnd
  0
BLOCK
  5
31
100
AcDbEntity
  8
0
370
    -2
390
0
100
AcDbBlockBegin
  2
MS_1
 70
     0
 10
0.0
 20
0.0
 30
0.0
  3
MS_1
  1

  0
MTEXT
  5
32
100
AcDbEntity
  8
0
390
0
  6
CONTINUOUS
 62
   110
100
AcDbMText
 10
64.094444
 20
54.35
 30
0.0
 40
3.2
 41
0.0
 71
     1
 72
     1
  1
\W0.833;\A1;かきくけこ
 73
     1
 44
0.9
  0
MTEXT
  5
33
100
AcDbEntity
  8
0
390
0
  6
CONTINUOUS
 62
   110
100
AcDbMText
 10
-5.905556
 20
54.35
 30
0.0
 40
3.2
 41
0.0
 71
     1
 72
     1
  1
\W0.833;\A1;あいうえお
 73
     1
 44
0.9
  0
MTEXT
  5
34
100
AcDbEntity
  8
0
390
0
  6
CONTINUOUS
 62
   110
100
AcDbMText
 10
92.544444
 20
66.6
 30
0.0
 40
3.2
 41
0.0
 71
     1
 72
     1
  1
\W0.833;\A1;変更理由
 73
     1
 44
0.9
  0
MTEXT
  5
35
100
AcDbEntity
  8
0
390
0
  6
CONTINUOUS
 62
   110
100
AcDbMText
 10
19.294444
 20
66.6
 30
0.0
 40
3.2
 41
0.0
 71
     1
 72
     1
  1
\W0.833;\A1;変更内容
 73
     1
 44
0.9
  0
MTEXT
  5
36
100
AcDbEntity
  8
0
390
0
  6
CONTINUOUS
 62
   110
100
AcDbMText
 10
-27.105556
 20
66.6
 30
0.0
 40
3.2
 41
0.0
 71
     1
 72
     1
  1
\W0.833;\A1;変更日
 73
     1
 44
0.9
  0
MTEXT
  5
37
100
AcDbEntity
  8
0
390
0
  6
CONTINUOUS
 62
   110
100
AcDbMText
 10
-56.705556
 20
66.6
 30
0.0
 40
3.2
 41
0.0
 71
     1
 72
     1
  1
\W0.833;\A1;品　　名
 73
     1
 44
0.9
  0
MTEXT
  5
38
100
AcDbEntity
  8
0
390
0
  6
CONTINUOUS
 62
   110
100
AcDbMText
 10
-77.605556
 20
66.6
 30
0.0
 40
3.2
 41
0.0
 71
     1
 72
     1
  1
\W0.833;\A1;品　番
 73
     1
 44
0.9
  0
MTEXT
  5
39
100
AcDbEntity
  8
0
390
0
  6
CONTINUOUS
 62
   110
100
AcDbMText
 10
-106.705556
 20
66.6
 30
0.0
 40
3.2
 41
0.0
 71
     1
 72
     1
  1
\W0.833;\A1;図　　番
 73
     1
 44
0.9
  0
MTEXT
  5
3A
100
AcDbEntity
  8
0
390
0
  6
CONTINUOUS
 62
   110
100
AcDbMText
 10
-128.416667
 20
66.6
 30
0.0
 40
3.2
 41
0.0
 71
     1
 72
     1
  1
\A1;NO
 73
     1
 44
0.9
  0
MTEXT
  5
3B
100
AcDbEntity
  8
0
390
0
  6
CONTINUOUS
 62
   110
100
AcDbMText
 10
-9.916666
 20
79.6
 30
0.0
 40
4.2
 41
0.0
 71
     1
 72
     1
  1
\W0.833;\A1;図面改訂表
 73
     1
 44
0.9
  0
LINE
  5
3C
100
AcDbEntity
  8
0
390
0
  6
CONTINUOUS
 62
   254
100
AcDbLine
 10
60.25
 20
-85.0
 30
0.0
 11
60.25
 21
70.0
 31
0.0
  0
LINE
  5
3D
100
AcDbEntity
  8
0
390
0
  6
CONTINUOUS
 62
   254
100
AcDbLine
 10
-9.75
 20
-85.0
 30
0.0
 11
-9.75
 21
70.0
 31
0.0
  0
LINE
  5
3E
100
AcDbEntity
  8
0
390
0
  6
CONTINUOUS
 62
   254
100
AcDbLine
 10
-35.75
 20
-85.0
 30
0.0
 11
-35.75
 21
70.0
 31
0.0
  0
LINE
  5
3F
100
AcDbEntity
  8
0
390
0
  6
CONTINUOUS
 62
   254
100
AcDbLine
 10
-65.75
 20
-85.0
 30
0.0
 11
-65.75
 21
70.0
 31
0.0
  0
LINE
  5
40
100
AcDbEntity
  8
0
390
0
  6
CONTINUOUS
 62
   254
100
AcDbLine
 10
-80.75
 20
-85.0
 30
0.0
 11
-80.75
 21
70.0
 31
0.0
  0
LINE
  5
41
100
AcDbEntity
  8
0
390
0
  6
CONTINUOUS
 62
   254
100
AcDbLine
 10
-120.75
 20
-85.0
 30
0.0
 11
-120.75
 21
70.0
 31
0.0
  0
LINE
  5
42
100
AcDbEntity
  8
0
390
0
  6
CONTINUOUS
 62
   254
100
AcDbLine
 10
-130.75
 20
60.0
 30
0.0
 11
130.75
 21
60.0
 31
0.0
  0
LINE
  5
43
100
AcDbEntity
  8
0
390
0
  6
CONTINUOUS
 62
   254
100
AcDbLine
 10
-130.75
 20
70.0
 30
0.0
 11
130.75
 21
70.0
 31
0.0
  0
LINE
  5
45
100
AcDbEntity
  8
DEFPOINTS
390
0
  6
NON_PLOTING
 62
    41
100
AcDbLine
 10
135.75
 20
-90.0
 30
0.0
 11
135.75
 21
90.0
 31
0.0
  0
LINE
  5
46
100
AcDbEntity
  8
DEFPOINTS
390
0
  6
NON_PLOTING
 62
    41
100
AcDbLine
 10
-135.75
 20
-90.0
 30
0.0
 11
135.75
 21
-90.0
 31
0.0
  0
LINE
  5
47
100
AcDbEntity
  8
DEFPOINTS
390
0
  6
NON_PLOTING
 62
    41
100
AcDbLine
 10
-135.75
 20
-90.0
 30
0.0
 11
-135.75
 21
90.0
 31
0.0
  0
LINE
  5
48
100
AcDbEntity
  8
DEFPOINTS
390
0
  6
NON_PLOTING
 62
    41
100
AcDbLine
 10
-135.75
 20
90.0
 30
0.0
 11
135.75
 21
90.0
 31
0.0
  0
LINE
  5
49
100
AcDbEntity
  8
0
390
0
  6
CONTINUOUS
 62
   253
100
AcDbLine
 10
-130.75
 20
-85.0
 30
0.0
 11
-130.75
 21
85.0
 31
0.0
  0
LINE
  5
4A
100
AcDbEntity
  8
0
390
0
  6
CONTINUOUS
 62
   253
100
AcDbLine
 10
-130.75
 20
85.0
 30
0.0
 11
130.75
 21
85.0
 31
0.0
  0
LINE
  5
4B
100
AcDbEntity
  8
0
390
0
  6
CONTINUOUS
 62
   253
100
AcDbLine
 10
-130.75
 20
-85.0
 30
0.0
 11
130.75
 21
-85.0
 31
0.0
  0
LINE
  5
4C
100
AcDbEntity
  8
0
390
0
  6
CONTINUOUS
 62
   253
100
AcDbLine
 10
130.75
 20
-85.0
 30
0.0
 11
130.75
 21
85.0
 31
0.0
  0
POINT
  5
4D
100
AcDbEntity
  8
0
390
0
  6
CONTINUOUS
 62
   170
100
AcDbPoint
 10
65.25
 20
-77.75
 30
0.0
  0
POINT
  5
4E
100
AcDbEntity
  8
0
390
0
  6
CONTINUOUS
 62
   170
100
AcDbPoint
 10
65.25
 20
-63.25
 30
0.0
  0
POINT
  5
4F
100
AcDbEntity
  8
0
390
0
  6
CONTINUOUS
 62
   170
100
AcDbPoint
 10
65.25
 20
-48.75
 30
0.0
  0
POINT
  5
50
100
AcDbEntity
  8
0
390
0
  6
CONTINUOUS
 62
   170
100
AcDbPoint
 10
65.25
 20
-34.25
 30
0.0
  0
POINT
  5
51
100
AcDbEntity
  8
0
390
0
  6
CONTINUOUS
 62
   170
100
AcDbPoint
 10
65.25
 20
-19.75
 30
0.0
  0
POINT
  5
52
100
AcDbEntity
  8
0
390
0
  6
CONTINUOUS
 62
   170
100
AcDbPoint
 10
65.25
 20
-5.25
 30
0.0
  0
POINT
  5
53
100
AcDbEntity
  8
0
390
0
  6
CONTINUOUS
 62
   170
100
AcDbPoint
 10
65.25
 20
9.25
 30
0.0
  0
POINT
  5
54
100
AcDbEntity
  8
0
390
0
  6
CONTINUOUS
 62
   170
100
AcDbPoint
 10
65.25
 20
23.75
 30
0.0
  0
POINT
  5
55
100
AcDbEntity
  8
0
390
0
  6
CONTINUOUS
 62
   170
100
AcDbPoint
 10
65.25
 20
38.25
 30
0.0
  0
POINT
  5
56
100
AcDbEntity
  8
0
390
0
  6
CONTINUOUS
 62
   170
100
AcDbPoint
 10
65.25
 20
52.75
 30
0.0
  0
POINT
  5
57
100
AcDbEntity
  8
0
390
0
  6
CONTINUOUS
 62
   170
100
AcDbPoint
 10
-4.75
 20
-77.75
 30
0.0
  0
POINT
  5
58
100
AcDbEntity
  8
0
390
0
  6
CONTINUOUS
 62
   170
100
AcDbPoint
 10
-4.75
 20
-63.25
 30
0.0
  0
POINT
  5
59
100
AcDbEntity
  8
0
390
0
  6
CONTINUOUS
 62
   170
100
AcDbPoint
 10
-4.75
 20
-48.75
 30
0.0
  0
POINT
  5
5A
100
AcDbEntity
  8
0
390
0
  6
CONTINUOUS
 62
   170
100
AcDbPoint
 10
-4.75
 20
-34.25
 30
0.0
  0
POINT
  5
5B
100
AcDbEntity
  8
0
390
0
  6
CONTINUOUS
 62
   170
100
AcDbPoint
 10
-4.75
 20
-19.75
 30
0.0
  0
POINT
  5
5C
100
AcDbEntity
  8
0
390
0
  6
CONTINUOUS
 62
   170
100
AcDbPoint
 10
-4.75
 20
-5.25
 30
0.0
  0
POINT
  5
5D
100
AcDbEntity
  8
0
390
0
  6
CONTINUOUS
 62
   170
100
AcDbPoint
 10
-4.75
 20
9.25
 30
0.0
  0
POINT
  5
5E
100
AcDbEntity
  8
0
390
0
  6
CONTINUOUS
 62
   170
100
AcDbPoint
 10
-4.75
 20
23.75
 30
0.0
  0
POINT
  5
5F
100
AcDbEntity
  8
0
390
0
  6
CONTINUOUS
 62
   170
100
AcDbPoint
 10
-4.75
 20
38.25
 30
0.0
  0
POINT
  5
60
100
AcDbEntity
  8
0
390
0
  6
CONTINUOUS
 62
   170
100
AcDbPoint
 10
-4.75
 20
52.75
 30
0.0
  0
POINT
  5
61
100
AcDbEntity
  8
0
390
0
  6
CONTINUOUS
 62
   170
100
AcDbPoint
 10
130.75
 20
-70.5
 30
0.0
  0
POINT
  5
62
100
AcDbEntity
  8
0
390
0
  6
CONTINUOUS
 62
   170
100
AcDbPoint
 10
130.75
 20
-56.0
 30
0.0
  0
POINT
  5
63
100
AcDbEntity
  8
0
390
0
  6
CONTINUOUS
 62
   170
100
AcDbPoint
 10
130.75
 20
-41.5
 30
0.0
  0
POINT
  5
64
100
AcDbEntity
  8
0
390
0
  6
CONTINUOUS
 62
   170
100
AcDbPoint
 10
130.75
 20
-27.0
 30
0.0
  0
POINT
  5
65
100
AcDbEntity
  8
0
390
0
  6
CONTINUOUS
 62
   170
100
AcDbPoint
 10
130.75
 20
-12.5
 30
0.0
  0
POINT
  5
66
100
AcDbEntity
  8
0
390
0
  6
CONTINUOUS
 62
   170
100
AcDbPoint
 10
130.75
 20
2.0
 30
0.0
  0
POINT
  5
67
100
AcDbEntity
  8
0
390
0
  6
CONTINUOUS
 62
   170
100
AcDbPoint
 10
130.75
 20
16.5
 30
0.0
  0
POINT
  5
68
100
AcDbEntity
  8
0
390
0
  6
CONTINUOUS
 62
   170
100
AcDbPoint
 10
130.75
 20
31.0
 30
0.0
  0
POINT
  5
69
100
AcDbEntity
  8
0
390
0
  6
CONTINUOUS
 62
   170
100
AcDbPoint
 10
130.75
 20
45.5
 30
0.0
  0
POINT
  5
6A
100
AcDbEntity
  8
0
390
0
  6
CONTINUOUS
 62
   170
100
AcDbPoint
 10
-130.75
 20
-70.5
 30
0.0
  0
POINT
  5
6B
100
AcDbEntity
  8
0
390
0
  6
CONTINUOUS
 62
   170
100
AcDbPoint
 10
-130.75
 20
-56.0
 30
0.0
  0
POINT
  5
6C
100
AcDbEntity
  8
0
390
0
  6
CONTINUOUS
 62
   170
100
AcDbPoint
 10
-130.75
 20
-41.5
 30
0.0
  0
POINT
  5
6D
100
AcDbEntity
  8
0
390
0
  6
CONTINUOUS
 62
   170
100
AcDbPoint
 10
-130.75
 20
-27.0
 30
0.0
  0
POINT
  5
6E
100
AcDbEntity
  8
0
390
0
  6
CONTINUOUS
 62
   170
100
AcDbPoint
 10
-130.75
 20
-12.5
 30
0.0
  0
POINT
  5
6F
100
AcDbEntity
  8
0
390
0
  6
CONTINUOUS
 62
   170
100
AcDbPoint
 10
-130.75
 20
2.0
 30
0.0
  0
POINT
  5
70
100
AcDbEntity
  8
0
390
0
  6
CONTINUOUS
 62
   170
100
AcDbPoint
 10
-130.75
 20
16.5
 30
0.0
  0
POINT
  5
71
100
AcDbEntity
  8
0
390
0
  6
CONTINUOUS
 62
   170
100
AcDbPoint
 10
-130.75
 20
31.0
 30
0.0
  0
POINT
  5
72
100
AcDbEntity
  8
0
390
0
  6
CONTINUOUS
 62
   170
100
AcDbPoint
 10
-130.75
 20
45.5
 30
0.0
  0
POINT
  5
73
100
AcDbEntity
  8
0
390
0
  6
CONTINUOUS
 62
   170
100
AcDbPoint
 10
-73.25
 20
-77.75
 30
0.0
  0
POINT
  5
74
100
AcDbEntity
  8
0
390
0
  6
CONTINUOUS
 62
   170
100
AcDbPoint
 10
-100.75
 20
-63.25
 30
0.0
  0
POINT
  5
75
100
AcDbEntity
  8
0
390
0
  6
CONTINUOUS
 62
   170
100
AcDbPoint
 10
-125.75
 20
-34.25
 30
0.0
  0
POINT
  5
76
100
AcDbEntity
  8
0
390
0
  6
CONTINUOUS
 62
   170
100
AcDbPoint
 10
-125.75
 20
9.25
 30
0.0
  0
POINT
  5
77
100
AcDbEntity
  8
0
390
0
  6
CONTINUOUS
 62
   170
100
AcDbPoint
 10
0.0
 20
77.5
 30
0.0
  0
POINT
  5
78
100
AcDbEntity
  8
0
390
0
  6
CONTINUOUS
 62
   170
100
AcDbPoint
 10
-125.75
 20
65.0
 30
0.0
  0
POINT
  5
79
100
AcDbEntity
  8
0
390
0
  6
CONTINUOUS
 62
   170
100
AcDbPoint
 10
-100.75
 20
65.0
 30
0.0
  0
POINT
  5
7A
100
AcDbEntity
  8
0
390
0
  6
CONTINUOUS
 62
   170
100
AcDbPoint
 10
-73.25
 20
65.0
 30
0.0
  0
POINT
  5
7B
100
AcDbEntity
  8
0
390
0
  6
CONTINUOUS
 62
   170
100
AcDbPoint
 10
-50.75
 20
65.0
 30
0.0
  0
POINT
  5
7C
100
AcDbEntity
  8
0
390
0
  6
CONTINUOUS
 62
   170
100
AcDbPoint
 10
-22.75
 20
65.0
 30
0.0
  0
POINT
  5
7D
100
AcDbEntity
  8
0
390
0
  6
CONTINUOUS
 62
   170
100
AcDbPoint
 10
25.25
 20
65.0
 30
0.0
  0
POINT
  5
7E
100
AcDbEntity
  8
0
390
0
  6
CONTINUOUS
 62
   170
100
AcDbPoint
 10
98.5
 20
65.0
 30
0.0
  0
POINT
  5
7F
100
AcDbEntity
  8
0
390
0
  6
CONTINUOUS
 62
   170
100
AcDbPoint
 10
-125.75
 20
52.75
 30
0.0
  0
POINT
  5
80
100
AcDbEntity
  8
0
390
0
  6
CONTINUOUS
 62
   170
100
AcDbPoint
 10
-125.75
 20
38.25
 30
0.0
  0
POINT
  5
81
100
AcDbEntity
  8
0
390
0
  6
CONTINUOUS
 62
   170
100
AcDbPoint
 10
-125.75
 20
23.75
 30
0.0
  0
POINT
  5
82
100
AcDbEntity
  8
0
390
0
  6
CONTINUOUS
 62
   170
100
AcDbPoint
 10
-125.75
 20
-5.25
 30
0.0
  0
POINT
  5
83
100
AcDbEntity
  8
0
390
0
  6
CONTINUOUS
 62
   170
100
AcDbPoint
 10
-125.75
 20
-19.75
 30
0.0
  0
POINT
  5
84
100
AcDbEntity
  8
0
390
0
  6
CONTINUOUS
 62
   170
100
AcDbPoint
 10
-125.75
 20
-48.75
 30
0.0
  0
POINT
  5
85
100
AcDbEntity
  8
0
390
0
  6
CONTINUOUS
 62
   170
100
AcDbPoint
 10
-125.75
 20
-63.25
 30
0.0
  0
POINT
  5
86
100
AcDbEntity
  8
0
390
0
  6
CONTINUOUS
 62
   170
100
AcDbPoint
 10
-125.75
 20
-77.75
 30
0.0
  0
POINT
  5
87
100
AcDbEntity
  8
0
390
0
  6
CONTINUOUS
 62
   170
100
AcDbPoint
 10
-100.75
 20
52.75
 30
0.0
  0
POINT
  5
88
100
AcDbEntity
  8
0
390
0
  6
CONTINUOUS
 62
   170
100
AcDbPoint
 10
-100.75
 20
38.25
 30
0.0
  0
POINT
  5
89
100
AcDbEntity
  8
0
390
0
  6
CONTINUOUS
 62
   170
100
AcDbPoint
 10
-100.75
 20
23.75
 30
0.0
  0
POINT
  5
8A
100
AcDbEntity
  8
0
390
0
  6
CONTINUOUS
 62
   170
100
AcDbPoint
 10
-100.75
 20
9.25
 30
0.0
  0
POINT
  5
8B
100
AcDbEntity
  8
0
390
0
  6
CONTINUOUS
 62
   170
100
AcDbPoint
 10
-100.75
 20
-5.25
 30
0.0
  0
POINT
  5
8C
100
AcDbEntity
  8
0
390
0
  6
CONTINUOUS
 62
   170
100
AcDbPoint
 10
-100.75
 20
-19.75
 30
0.0
  0
POINT
  5
8D
100
AcDbEntity
  8
0
390
0
  6
CONTINUOUS
 62
   170
100
AcDbPoint
 10
-100.75
 20
-34.25
 30
0.0
  0
POINT
  5
8E
100
AcDbEntity
  8
0
390
0
  6
CONTINUOUS
 62
   170
100
AcDbPoint
 10
-100.75
 20
-48.75
 30
0.0
  0
POINT
  5
8F
100
AcDbEntity
  8
0
390
0
  6
CONTINUOUS
 62
   170
100
AcDbPoint
 10
-100.75
 20
-63.25
 30
0.0
  0
POINT
  5
90
100
AcDbEntity
  8
0
390
0
  6
CONTINUOUS
 62
   170
100
AcDbPoint
 10
-100.75
 20
-77.75
 30
0.0
  0
POINT
  5
91
100
AcDbEntity
  8
0
390
0
  6
CONTINUOUS
 62
   170
100
AcDbPoint
 10
-73.25
 20
52.75
 30
0.0
  0
POINT
  5
92
100
AcDbEntity
  8
0
390
0
  6
CONTINUOUS
 62
   170
100
AcDbPoint
 10
-73.25
 20
23.75
 30
0.0
  0
POINT
  5
93
100
AcDbEntity
  8
0
390
0
  6
CONTINUOUS
 62
   170
100
AcDbPoint
 10
-73.25
 20
38.25
 30
0.0
  0
POINT
  5
94
100
AcDbEntity
  8
0
390
0
  6
CONTINUOUS
 62
   170
100
AcDbPoint
 10
-73.25
 20
9.25
 30
0.0
  0
POINT
  5
95
100
AcDbEntity
  8
0
390
0
  6
CONTINUOUS
 62
   170
100
AcDbPoint
 10
-73.25
 20
-5.25
 30
0.0
  0
POINT
  5
96
100
AcDbEntity
  8
0
390
0
  6
CONTINUOUS
 62
   170
100
AcDbPoint
 10
-73.25
 20
-19.75
 30
0.0
  0
POINT
  5
97
100
AcDbEntity
  8
0
390
0
  6
CONTINUOUS
 62
   170
100
AcDbPoint
 10
-73.25
 20
-34.25
 30
0.0
  0
POINT
  5
98
100
AcDbEntity
  8
0
390
0
  6
CONTINUOUS
 62
   170
100
AcDbPoint
 10
-73.25
 20
-48.75
 30
0.0
  0
POINT
  5
99
100
AcDbEntity
  8
0
390
0
  6
CONTINUOUS
 62
   170
100
AcDbPoint
 10
-73.25
 20
-63.25
 30
0.0
  0
POINT
  5
9A
100
AcDbEntity
  8
0
390
0
  6
CONTINUOUS
 62
   170
100
AcDbPoint
 10
-73.25
 20
-77.75
 30
0.0
  0
POINT
  5
9B
100
AcDbEntity
  8
0
390
0
  6
CONTINUOUS
 62
   170
100
AcDbPoint
 10
-50.75
 20
52.75
 30
0.0
  0
POINT
  5
9C
100
AcDbEntity
  8
0
390
0
  6
CONTINUOUS
 62
   170
100
AcDbPoint
 10
-50.75
 20
38.25
 30
0.0
  0
POINT
  5
9D
100
AcDbEntity
  8
0
390
0
  6
CONTINUOUS
 62
   170
100
AcDbPoint
 10
-50.75
 20
23.75
 30
0.0
  0
POINT
  5
9E
100
AcDbEntity
  8
0
390
0
  6
CONTINUOUS
 62
   170
100
AcDbPoint
 10
-50.75
 20
9.25
 30
0.0
  0
POINT
  5
9F
100
AcDbEntity
  8
0
390
0
  6
CONTINUOUS
 62
   170
100
AcDbPoint
 10
-50.75
 20
-5.25
 30
0.0
  0
POINT
  5
A0
100
AcDbEntity
  8
0
390
0
  6
CONTINUOUS
 62
   170
100
AcDbPoint
 10
-50.75
 20
-19.75
 30
0.0
  0
POINT
  5
A1
100
AcDbEntity
  8
0
390
0
  6
CONTINUOUS
 62
   170
100
AcDbPoint
 10
-50.75
 20
-34.25
 30
0.0
  0
POINT
  5
A2
100
AcDbEntity
  8
0
390
0
  6
CONTINUOUS
 62
   170
100
AcDbPoint
 10
-50.75
 20
-48.75
 30
0.0
  0
POINT
  5
A3
100
AcDbEntity
  8
0
390
0
  6
CONTINUOUS
 62
   170
100
AcDbPoint
 10
-50.75
 20
-63.25
 30
0.0
  0
POINT
  5
A4
100
AcDbEntity
  8
0
390
0
  6
CONTINUOUS
 62
   170
100
AcDbPoint
 10
-50.75
 20
-77.75
 30
0.0
  0
POINT
  5
A5
100
AcDbEntity
  8
0
390
0
  6
CONTINUOUS
 62
   170
100
AcDbPoint
 10
-22.75
 20
52.75
 30
0.0
  0
POINT
  5
A6
100
AcDbEntity
  8
0
390
0
  6
CONTINUOUS
 62
   170
100
AcDbPoint
 10
-22.75
 20
38.25
 30
0.0
  0
POINT
  5
A7
100
AcDbEntity
  8
0
390
0
  6
CONTINUOUS
 62
   170
100
AcDbPoint
 10
-22.75
 20
23.75
 30
0.0
  0
POINT
  5
A8
100
AcDbEntity
  8
0
390
0
  6
CONTINUOUS
 62
   170
100
AcDbPoint
 10
-22.75
 20
9.25
 30
0.0
  0
POINT
  5
A9
100
AcDbEntity
  8
0
390
0
  6
CONTINUOUS
 62
   170
100
AcDbPoint
 10
-22.75
 20
-5.25
 30
0.0
  0
POINT
  5
AA
100
AcDbEntity
  8
0
390
0
  6
CONTINUOUS
 62
   170
100
AcDbPoint
 10
-22.75
 20
-19.75
 30
0.0
  0
POINT
  5
AB
100
AcDbEntity
  8
0
390
0
  6
CONTINUOUS
 62
   170
100
AcDbPoint
 10
-22.75
 20
-34.25
 30
0.0
  0
POINT
  5
AC
100
AcDbEntity
  8
0
390
0
  6
CONTINUOUS
 62
   170
100
AcDbPoint
 10
-22.75
 20
-48.75
 30
0.0
  0
POINT
  5
AD
100
AcDbEntity
  8
0
390
0
  6
CONTINUOUS
 62
   170
100
AcDbPoint
 10
-22.75
 20
-63.25
 30
0.0
  0
POINT
  5
AE
100
AcDbEntity
  8
0
390
0
  6
CONTINUOUS
 62
   170
100
AcDbPoint
 10
-22.75
 20
-77.75
 30
0.0
  0
ENDBLK
  5
AF
100
AcDbEntity
  8
0
370
    -2
390
0
100
AcDbBlockEnd
  0
BLOCK
  5
B0
100
AcDbEntity
  8
0
370
    -2
390
0
100
AcDbBlockBegin
  2
MS_2
 70
     0
 10
0.0
 20
0.0
 30
0.0
  3
MS_2
  1

  0
POINT
  5
B1
100
AcDbEntity
  8
0
390
0
  6
CONTINUOUS
 62
   170
100
AcDbPoint
 10
0.0
 20
0.0
 30
0.0
  0
POINT
  5
B2
100
AcDbEntity
  8
0
390
0
  6
CONTINUOUS
 62
   170
100
AcDbPoint
 10
0.0
 20
-7.0
 30
0.0
  0
LINE
  5
B3
100
AcDbEntity
  8
0
390
0
  6
CONTINUOUS
 62
   255
100
AcDbLine
 10
22.5
 20
3.5
 30
0.0
 11
22.5
 21
-3.5
 31
0.0
  0
LINE
  5
B4
100
AcDbEntity
  8
0
390
0
  6
CONTINUOUS
 62
   140
100
AcDbLine
 10
-22.5
 20
-10.5
 30
0.0
 11
22.5
 21
-10.5
 31
0.0
  0
LINE
  5
B5
100
AcDbEntity
  8
0
390
0
  6
CONTINUOUS
 62
   255
100
AcDbLine
 10
-22.5
 20
3.5
 30
0.0
 11
-22.5
 21
-3.5
 31
0.0
  0
LINE
  5
B6
100
AcDbEntity
  8
0
390
0
  6
CONTINUOUS
 62
   140
100
AcDbLine
 10
-22.5
 20
-3.5
 30
0.0
 11
22.5
 21
-3.5
 31
0.0
  0
LINE
  5
B7
100
AcDbEntity
  8
0
390
0
  6
CONTINUOUS
 62
   255
100
AcDbLine
 10
-22.5
 20
3.5
 30
0.0
 11
22.5
 21
3.5
 31
0.0
  0
LINE
  5
B8
100
AcDbEntity
  8
0
390
0
  6
CONTINUOUS
 62
   140
100
AcDbLine
 10
-22.5
 20
-3.5
 30
0.0
 11
-22.5
 21
-10.5
 31
0.0
  0
LINE
  5
B9
100
AcDbEntity
  8
0
390
0
  6
CONTINUOUS
 62
   140
100
AcDbLine
 10
22.5
 20
-3.5
 30
0.0
 11
22.5
 21
-10.5
 31
0.0
  0
MTEXT
  5
BA
100
AcDbEntity
  8
0
390
0
  6
CONTINUOUS
 62
   110
100
AcDbMText
 10
-17.066667
 20
1.6
 30
0.0
 40
3.2
 41
0.0
 71
     1
 72
     1
  1
\A1;----------*
 73
     1
 44
0.9
  0
MTEXT
  5
BB
100
AcDbEntity
  8
0
390
0
  6
CONTINUOUS
 62
   110
100
AcDbMText
 10
-9.155556
 20
-5.4
 30
0.0
 40
3.2
 41
0.0
 71
     1
 72
     1
  1
\W0.833;\A1;製品関連図面
 73
     1
 44
0.9
  0
ENDBLK
  5
BC
100
AcDbEntity
  8
0
370
    -2
390
0
100
AcDbBlockEnd
  0
BLOCK
  5
BD
100
AcDbEntity
  8
0
370
    -2
390
0
100
AcDbBlockBegin
  2
VF1010
 70
     0
 10
0.0
 20
0.0
 30
0.0
  3
VF1010
  1

  0
DIMENSION
  5
CA
100
AcDbEntity
  8
0
390
0
  6
CONTINUOUS
 62
   110
100
AcDbDimension
  2
*D6
 10
-80.0
 20
32.0
 30
0.0
 11
-90.0
 21
32.0
 31
0.0
 70
   128
 71
     5
 72
     1
 41
0.9
 42
20.0
  1
\A1;<>
  3
MXDIMSTYLE
100
AcDbAlignedDimension
 13
-100.0
 23
15.0
 33
0.0
 14
-80.0
 24
7.65
 34
0.0
100
AcDbRotatedDimension
1001
ACAD
1000
DSTYLE
1002
{
1070
    41
1040
2.77
1070
    44
1040
2.286
1070
    75
1070
     1
1070
   140
1040
3.2
1070
   271
1070
     0
1070
   284
1070
     8
1070
   340
1005
C4
1002
}
  0
DIMENSION
  5
D7
100
AcDbEntity
  8
0
390
0
  6
CONTINUOUS
 62
   255
100
AcDbDimension
  2
*D7
 10
80.0
 20
32.0
 30
0.0
 11
0.0
 21
32.0
 31
0.0
 70
   128
 71
     5
 72
     1
 41
0.9
 42
160.0
  1
\A1;(<>)
  3
MXDIMSTYLE
100
AcDbAlignedDimension
 13
-80.0
 23
7.65
 33
0.0
 14
80.0
 24
7.65
 34
0.0
100
AcDbRotatedDimension
1001
ACAD
1000
DSTYLE
1002
{
1070
    41
1040
2.77
1070
    44
1040
2.286
1070
    75
1070
     1
1070
   140
1040
3.2
1070
   271
1070
     0
1070
   284
1070
     8
1070
   340
1005
D1
1002
}
  0
DIMENSION
  5
E4
100
AcDbEntity
  8
0
390
0
  6
CONTINUOUS
 62
   255
100
AcDbDimension
  2
*D8
 10
-100.0
 20
40.0
 30
0.0
 11
0.0
 21
40.0
 31
0.0
 70
   128
 71
     5
 72
     1
 41
0.9
 42
200.0
  1
\A1;<>±5%
  3
MXDIMSTYLE
100
AcDbAlignedDimension
 13
100.0
 23
15.0
 33
0.0
 14
-100.0
 24
15.0
 34
0.0
100
AcDbRotatedDimension
1001
ACAD
1000
DSTYLE
1002
{
1070
    41
1040
2.77
1070
    44
1040
2.286
1070
   140
1040
3.2
1070
   271
1070
     0
1070
   284
1070
     8
1002
}
  0
DIMENSION
  5
F1
100
AcDbEntity
  8
0
390
0
  6
CONTINUOUS
 62
   110
100
AcDbDimension
  2
*D9
 10
-120.0
 20
-15.0
 30
0.0
 11
-120.0
 21
0.0
 31
0.0
 70
   128
 71
     5
 72
     1
 41
0.9
 42
30.0
  1
\A1;\U+2205<>
  3
MXDIMSTYLE
100
AcDbAlignedDimension
 13
-100.0
 23
15.0
 33
0.0
 14
-100.0
 24
-15.0
 34
0.0
 50
90.0
100
AcDbRotatedDimension
1001
ACAD
1000
DSTYLE
1002
{
1070
    41
1040
2.77
1070
    44
1040
2.286
1070
   140
1040
3.2
1070
   271
1070
     0
1070
   284
1070
     8
1002
}
  0
DIMENSION
  5
FC
100
AcDbEntity
  8
0
390
0
  6
CONTINUOUS
 62
   110
100
AcDbDimension
  2
*D10
 10
100.0
 20
32.0
 30
0.0
 11
90.0
 21
32.0
 31
0.0
 70
   128
 71
     5
 72
     1
 41
0.9
 42
20.0
  1
\A1;<>
  3
MXDIMSTYLE
100
AcDbAlignedDimension
 13
80.0
 23
7.65
 33
0.0
 14
100.0
 24
15.0
 34
0.0
100
AcDbRotatedDimension
1001
ACAD
1000
DSTYLE
1002
{
1070
    41
1040
2.77
1070
    75
1070
     1
1070
    76
1070
     1
1070
   140
1040
3.2
1070
   271
1070
     0
1070
   284
1070
     8
1070
   340
1005
C4
1002
}
  0
DIMENSION
  5
109
100
AcDbEntity
  8
0
390
0
  6
CONTINUOUS
 62
   110
100
AcDbDimension
  2
*D11
 10
-16.0
 20
7.5
 30
0.0
 11
-16.0
 21
16.0
 31
0.0
 70
   128
 71
     5
 72
     1
 41
0.9
 42
15.0
  1
\A1;\U+2205<>
  3
MXDIMSTYLE
100
AcDbAlignedDimension
 13
-2.845592
 23
-7.5
 33
0.0
 14
-0.200687
 24
7.5
 34
0.0
 50
90.0
100
AcDbRotatedDimension
1001
ACAD
1000
DSTYLE
1002
{
1070
    41
1040
2.77
1070
    75
1070
     1
1070
    76
1070
     1
1070
   140
1040
3.2
1070
   271
1070
     0
1070
   284
1070
     8
1070
   340
1005
103
1002
}
  0
DIMENSION
  5
116
100
AcDbEntity
  8
0
390
0
  6
CONTINUOUS
 62
   110
100
AcDbDimension
  2
*D12
 10
-24.0
 20
5.25
 30
0.0
 11
-24.0
 21
16.0
 31
0.0
 70
   128
 71
     5
 72
     1
 41
0.9
 42
10.5
  1
\A1;\U+2205<>
  3
MXDIMSTYLE
100
AcDbAlignedDimension
 13
-2.448856
 23
-5.25
 33
0.0
 14
-0.597424
 24
5.25
 34
0.0
 50
90.0
100
AcDbRotatedDimension
1001
ACAD
1000
DSTYLE
1002
{
1070
    41
1040
2.77
1070
    75
1070
     1
1070
    76
1070
     1
1070
   140
1040
3.2
1070
   271
1070
     1
1070
   284
1070
     8
1070
   340
1005
110
1002
}
  0
ARC
  5
117
100
AcDbEntity
  8
0
390
0
  6
CONTINUOUS
 62
     3
100
AcDbCircle
 10
77.75
 20
-6.75
 30
0.0
 40
0.75
100
AcDbArc
 50
180.0
 51
0.0
  0
ARC
  5
118
100
AcDbEntity
  8
0
390
0
  6
CONTINUOUS
 62
     3
100
AcDbCircle
 10
79.25
 20
-6.0
 30
0.0
 40
0.75
100
AcDbArc
 50
0.0
 51
180.0
  0
ARC
  5
119
100
AcDbEntity
  8
0
390
0
  6
CONTINUOUS
 62
     3
100
AcDbCircle
 10
71.75
 20
6.75
 30
0.0
 40
0.75
100
AcDbArc
 50
0.0
 51
180.0
  0
ARC
  5
11A
100
AcDbEntity
  8
0
390
0
  6
CONTINUOUS
 62
     3
100
AcDbCircle
 10
73.25
 20
6.0
 30
0.0
 40
0.75
100
AcDbArc
 50
180.0
 51
0.0
  0
ARC
  5
11B
100
AcDbEntity
  8
0
390
0
  6
CONTINUOUS
 62
     3
100
AcDbCircle
 10
74.75
 20
6.75
 30
0.0
 40
0.75
100
AcDbArc
 50
0.0
 51
180.0
  0
ARC
  5
11C
100
AcDbEntity
  8
0
390
0
  6
CONTINUOUS
 62
     3
100
AcDbCircle
 10
76.25
 20
6.0
 30
0.0
 40
0.75
100
AcDbArc
 50
180.0
 51
0.0
  0
ARC
  5
11D
100
AcDbEntity
  8
0
390
0
  6
CONTINUOUS
 62
     3
100
AcDbCircle
 10
77.75
 20
6.75
 30
0.0
 40
0.75
100
AcDbArc
 50
0.0
 51
180.0
  0
ARC
  5
11E
100
AcDbEntity
  8
0
390
0
  6
CONTINUOUS
 62
     3
100
AcDbCircle
 10
79.25
 20
6.0
 30
0.0
 40
0.75
100
AcDbArc
 50
180.0
 51
0.0
  0
ARC
  5
11F
100
AcDbEntity
  8
0
390
0
  6
CONTINUOUS
 62
     3
100
AcDbCircle
 10
98.15099
 20
-13.5
 30
0.0
 40
1.5
100
AcDbArc
 50
195.0
 51
270.0
  0
ARC
  5
120
100
AcDbEntity
  8
0
390
0
  6
CONTINUOUS
 62
     3
100
AcDbCircle
 10
98.15099
 20
13.5
 30
0.0
 40
1.5
100
AcDbArc
 50
90.0
 51
165.0
  0
ARC
  5
121
100
AcDbEntity
  8
0
390
0
  6
CONTINUOUS
 62
     3
100
AcDbCircle
 10
71.75
 20
-6.75
 30
0.0
 40
0.75
100
AcDbArc
 50
180.0
 51
0.0
  0
ARC
  5
122
100
AcDbEntity
  8
0
390
0
  6
CONTINUOUS
 62
     3
100
AcDbCircle
 10
73.25
 20
-6.0
 30
0.0
 40
0.75
100
AcDbArc
 50
0.0
 51
180.0
  0
ARC
  5
123
100
AcDbEntity
  8
0
390
0
  6
CONTINUOUS
 62
     3
100
AcDbCircle
 10
74.75
 20
-6.75
 30
0.0
 40
0.75
100
AcDbArc
 50
180.0
 51
0.0
  0
ARC
  5
124
100
AcDbEntity
  8
0
390
0
  6
CONTINUOUS
 62
     3
100
AcDbCircle
 10
76.25
 20
-6.0
 30
0.0
 40
0.75
100
AcDbArc
 50
0.0
 51
180.0
  0
ARC
  5
125
100
AcDbEntity
  8
0
390
0
  6
CONTINUOUS
 62
     3
100
AcDbCircle
 10
-71.75
 20
-6.75
 30
0.0
 40
0.75
100
AcDbArc
 50
180.0
 51
0.0
  0
ARC
  5
126
100
AcDbEntity
  8
0
390
0
  6
CONTINUOUS
 62
     3
100
AcDbCircle
 10
-73.25
 20
-6.0
 30
0.0
 40
0.75
100
AcDbArc
 50
0.0
 51
180.0
  0
ARC
  5
127
100
AcDbEntity
  8
0
390
0
  6
CONTINUOUS
 62
     3
100
AcDbCircle
 10
-74.75
 20
-6.75
 30
0.0
 40
0.75
100
AcDbArc
 50
180.0
 51
0.0
  0
ARC
  5
128
100
AcDbEntity
  8
0
390
0
  6
CONTINUOUS
 62
     3
100
AcDbCircle
 10
-76.25
 20
-6.0
 30
0.0
 40
0.75
100
AcDbArc
 50
0.0
 51
180.0
  0
ARC
  5
129
100
AcDbEntity
  8
0
390
0
  6
CONTINUOUS
 62
     3
100
AcDbCircle
 10
-77.75
 20
-6.75
 30
0.0
 40
0.75
100
AcDbArc
 50
180.0
 51
0.0
  0
ARC
  5
12A
100
AcDbEntity
  8
0
390
0
  6
CONTINUOUS
 62
     3
100
AcDbCircle
 10
-79.25
 20
-6.0
 30
0.0
 40
0.75
100
AcDbArc
 50
0.0
 51
180.0
  0
ARC
  5
12B
100
AcDbEntity
  8
0
390
0
  6
CONTINUOUS
 62
     3
100
AcDbCircle
 10
-71.75
 20
6.75
 30
0.0
 40
0.75
100
AcDbArc
 50
0.0
 51
180.0
  0
ARC
  5
12C
100
AcDbEntity
  8
0
390
0
  6
CONTINUOUS
 62
     3
100
AcDbCircle
 10
-73.25
 20
6.0
 30
0.0
 40
0.75
100
AcDbArc
 50
180.0
 51
0.0
  0
ARC
  5
12D
100
AcDbEntity
  8
0
390
0
  6
CONTINUOUS
 62
     3
100
AcDbCircle
 10
-74.75
 20
6.75
 30
0.0
 40
0.75
100
AcDbArc
 50
0.0
 51
180.0
  0
ARC
  5
12E
100
AcDbEntity
  8
0
390
0
  6
CONTINUOUS
 62
     3
100
AcDbCircle
 10
-76.25
 20
6.0
 30
0.0
 40
0.75
100
AcDbArc
 50
180.0
 51
0.0
  0
ARC
  5
12F
100
AcDbEntity
  8
0
390
0
  6
CONTINUOUS
 62
     3
100
AcDbCircle
 10
-77.75
 20
6.75
 30
0.0
 40
0.75
100
AcDbArc
 50
0.0
 51
180.0
  0
ARC
  5
130
100
AcDbEntity
  8
0
390
0
  6
CONTINUOUS
 62
     3
100
AcDbCircle
 10
-79.25
 20
6.0
 30
0.0
 40
0.75
100
AcDbArc
 50
180.0
 51
0.0
  0
ARC
  5
131
100
AcDbEntity
  8
0
390
0
  6
CONTINUOUS
 62
     3
100
AcDbCircle
 10
-98.15099
 20
-13.5
 30
0.0
 40
1.5
100
AcDbArc
 50
270.0
 51
345.0
  0
ARC
  5
132
100
AcDbEntity
  8
0
390
0
  6
CONTINUOUS
 62
     3
100
AcDbCircle
 10
-98.15099
 20
13.5
 30
0.0
 40
1.5
100
AcDbArc
 50
15.0
 51
90.0
  0
LINE
  5
134
100
AcDbEntity
  8
0
390
0
  6
PHANTOM
 62
   110
100
AcDbLine
 10
71.75
 20
-7.5
 30
0.0
 11
0.200688
 21
-7.5
 31
0.0
  0
LINE
  5
135
100
AcDbEntity
  8
0
390
0
  6
PHANTOM
 62
   110
100
AcDbLine
 10
73.25
 20
-5.25
 30
0.0
 11
0.597423
 21
-5.25
 31
0.0
  0
LINE
  5
136
100
AcDbEntity
  8
0
390
0
  6
CONTINUOUS
 62
     3
100
AcDbLine
 10
71.0
 20
-6.75
 30
0.0
 11
71.0
 21
-6.0
 31
0.0
  0
LINE
  5
137
100
AcDbEntity
  8
0
390
0
  6
CONTINUOUS
 62
     3
100
AcDbLine
 10
72.5
 20
-6.75
 30
0.0
 11
72.5
 21
-6.0
 31
0.0
  0
LINE
  5
138
100
AcDbEntity
  8
0
390
0
  6
CONTINUOUS
 62
     3
100
AcDbLine
 10
74.0
 20
-6.75
 30
0.0
 11
74.0
 21
-6.0
 31
0.0
  0
LINE
  5
139
100
AcDbEntity
  8
0
390
0
  6
CONTINUOUS
 62
     3
100
AcDbLine
 10
75.5
 20
-6.75
 30
0.0
 11
75.5
 21
-6.0
 31
0.0
  0
LINE
  5
13A
100
AcDbEntity
  8
0
390
0
  6
CONTINUOUS
 62
     3
100
AcDbLine
 10
77.0
 20
-6.75
 30
0.0
 11
77.0
 21
-6.0
 31
0.0
  0
LINE
  5
13B
100
AcDbEntity
  8
0
390
0
  6
CONTINUOUS
 62
     3
100
AcDbLine
 10
78.5
 20
-6.75
 30
0.0
 11
78.5
 21
-6.0
 31
0.0
  0
LINE
  5
13C
100
AcDbEntity
  8
0
390
0
  6
PHANTOM
 62
   110
100
AcDbLine
 10
71.75
 20
7.5
 30
0.0
 11
2.845592
 21
7.5
 31
0.0
  0
LINE
  5
13D
100
AcDbEntity
  8
0
390
0
  6
PHANTOM
 62
   110
100
AcDbLine
 10
73.25
 20
5.25
 30
0.0
 11
2.448857
 21
5.25
 31
0.0
  0
LINE
  5
13E
100
AcDbEntity
  8
0
390
0
  6
CONTINUOUS
 62
     3
100
AcDbLine
 10
71.0
 20
6.75
 30
0.0
 11
71.0
 21
6.0
 31
0.0
  0
LINE
  5
13F
100
AcDbEntity
  8
0
390
0
  6
CONTINUOUS
 62
     3
100
AcDbLine
 10
72.5
 20
6.75
 30
0.0
 11
72.5
 21
6.0
 31
0.0
  0
LINE
  5
140
100
AcDbEntity
  8
0
390
0
  6
CONTINUOUS
 62
     3
100
AcDbLine
 10
74.0
 20
6.75
 30
0.0
 11
74.0
 21
6.0
 31
0.0
  0
LINE
  5
141
100
AcDbEntity
  8
0
390
0
  6
CONTINUOUS
 62
     3
100
AcDbLine
 10
75.5
 20
6.75
 30
0.0
 11
75.5
 21
6.0
 31
0.0
  0
LINE
  5
142
100
AcDbEntity
  8
0
390
0
  6
CONTINUOUS
 62
     3
100
AcDbLine
 10
77.0
 20
6.75
 30
0.0
 11
77.0
 21
6.0
 31
0.0
  0
LINE
  5
143
100
AcDbEntity
  8
0
390
0
  6
CONTINUOUS
 62
     3
100
AcDbLine
 10
78.5
 20
6.75
 30
0.0
 11
78.5
 21
6.0
 31
0.0
  0
LINE
  5
144
100
AcDbEntity
  8
0
390
0
  6
CONTINUOUS
 62
     3
100
AcDbLine
 10
100.0
 20
-15.0
 30
0.0
 11
98.15099
 21
-15.0
 31
0.0
  0
LINE
  5
145
100
AcDbEntity
  8
0
390
0
  6
CONTINUOUS
 62
     3
100
AcDbLine
 10
96.702102
 20
-13.888229
 30
0.0
 11
94.829612
 21
-6.9
 31
0.0
  0
LINE
  5
146
100
AcDbEntity
  8
0
390
0
  6
CONTINUOUS
 62
     3
100
AcDbLine
 10
94.829612
 20
-6.9
 30
0.0
 11
80.933013
 21
-6.9
 31
0.0
  0
LINE
  5
147
100
AcDbEntity
  8
0
390
0
  6
CONTINUOUS
 62
     3
100
AcDbLine
 10
80.5
 20
-7.65
 30
0.0
 11
80.933013
 21
-6.9
 31
0.0
  0
LINE
  5
148
100
AcDbEntity
  8
0
390
0
  6
CONTINUOUS
 62
     3
100
AcDbLine
 10
80.5
 20
-7.65
 30
0.0
 11
80.0
 21
-7.65
 31
0.0
  0
LINE
  5
149
100
AcDbEntity
  8
0
390
0
  6
CONTINUOUS
 62
     3
100
AcDbLine
 10
97.5
 20
-5.0
 30
0.0
 11
80.0
 21
-5.0
 31
0.0
  0
LINE
  5
14A
100
AcDbEntity
  8
0
390
0
  6
CONTINUOUS
 62
     3
100
AcDbLine
 10
100.0
 20
-6.1
 30
0.0
 11
97.5
 21
-6.1
 31
0.0
  0
LINE
  5
14B
100
AcDbEntity
  8
0
390
0
  6
CONTINUOUS
 62
     3
100
AcDbLine
 10
97.5
 20
6.1
 30
0.0
 11
97.5
 21
-6.1
 31
0.0
  0
LINE
  5
14C
100
AcDbEntity
  8
0
390
0
  6
CONTINUOUS
 62
     3
100
AcDbLine
 10
100.0
 20
6.1
 30
0.0
 11
97.5
 21
6.1
 31
0.0
  0
LINE
  5
14D
100
AcDbEntity
  8
0
390
0
  6
CONTINUOUS
 62
     3
100
AcDbLine
 10
97.5
 20
5.0
 30
0.0
 11
80.0
 21
5.0
 31
0.0
  0
LINE
  5
14E
100
AcDbEntity
  8
0
390
0
  6
CONTINUOUS
 62
     3
100
AcDbLine
 10
80.5
 20
7.65
 30
0.0
 11
80.933013
 21
6.9
 31
0.0
  0
LINE
  5
14F
100
AcDbEntity
  8
0
390
0
  6
CONTINUOUS
 62
     3
100
AcDbLine
 10
80.5
 20
7.65
 30
0.0
 11
80.0
 21
7.65
 31
0.0
  0
LINE
  5
150
100
AcDbEntity
  8
0
390
0
  6
CONTINUOUS
 62
     3
100
AcDbLine
 10
96.702102
 20
13.888229
 30
0.0
 11
94.829612
 21
6.9
 31
0.0
  0
LINE
  5
151
100
AcDbEntity
  8
0
390
0
  6
CONTINUOUS
 62
     3
100
AcDbLine
 10
94.829612
 20
6.9
 30
0.0
 11
80.933013
 21
6.9
 31
0.0
  0
LINE
  5
152
100
AcDbEntity
  8
0
390
0
  6
CONTINUOUS
 62
     3
100
AcDbLine
 10
100.0
 20
15.0
 30
0.0
 11
98.15099
 21
15.0
 31
0.0
  0
LINE
  5
153
100
AcDbEntity
  8
0
390
0
  6
CONTINUOUS
 62
     3
100
AcDbLine
 10
80.0
 20
7.65
 30
0.0
 11
80.0
 21
-7.65
 31
0.0
  0
LINE
  5
154
100
AcDbEntity
  8
0
390
0
  6
CONTINUOUS
 62
     3
100
AcDbLine
 10
100.0
 20
15.0
 30
0.0
 11
100.0
 21
-15.0
 31
0.0
  0
LINE
  5
155
100
AcDbEntity
  8
0
390
0
  6
PHANTOM
 62
   110
100
AcDbLine
 10
-71.75
 20
-7.5
 30
0.0
 11
-2.845592
 21
-7.5
 31
0.0
  0
LINE
  5
156
100
AcDbEntity
  8
0
390
0
  6
PHANTOM
 62
   110
100
AcDbLine
 10
-73.25
 20
-5.25
 30
0.0
 11
-2.448857
 21
-5.25
 31
0.0
  0
LINE
  5
157
100
AcDbEntity
  8
0
390
0
  6
CONTINUOUS
 62
     3
100
AcDbLine
 10
-71.0
 20
-6.75
 30
0.0
 11
-71.0
 21
-6.0
 31
0.0
  0
LINE
  5
158
100
AcDbEntity
  8
0
390
0
  6
CONTINUOUS
 62
     3
100
AcDbLine
 10
-72.5
 20
-6.75
 30
0.0
 11
-72.5
 21
-6.0
 31
0.0
  0
LINE
  5
159
100
AcDbEntity
  8
0
390
0
  6
CONTINUOUS
 62
     3
100
AcDbLine
 10
-74.0
 20
-6.75
 30
0.0
 11
-74.0
 21
-6.0
 31
0.0
  0
LINE
  5
15A
100
AcDbEntity
  8
0
390
0
  6
CONTINUOUS
 62
     3
100
AcDbLine
 10
-75.5
 20
-6.75
 30
0.0
 11
-75.5
 21
-6.0
 31
0.0
  0
LINE
  5
15B
100
AcDbEntity
  8
0
390
0
  6
CONTINUOUS
 62
     3
100
AcDbLine
 10
-77.0
 20
-6.75
 30
0.0
 11
-77.0
 21
-6.0
 31
0.0
  0
LINE
  5
15C
100
AcDbEntity
  8
0
390
0
  6
CONTINUOUS
 62
     3
100
AcDbLine
 10
-78.5
 20
-6.75
 30
0.0
 11
-78.5
 21
-6.0
 31
0.0
  0
LINE
  5
15D
100
AcDbEntity
  8
0
390
0
  6
PHANTOM
 62
   110
100
AcDbLine
 10
-71.75
 20
7.5
 30
0.0
 11
-0.200688
 21
7.5
 31
0.0
  0
LINE
  5
15E
100
AcDbEntity
  8
0
390
0
  6
PHANTOM
 62
   110
100
AcDbLine
 10
-73.25
 20
5.25
 30
0.0
 11
-0.597423
 21
5.25
 31
0.0
  0
LINE
  5
15F
100
AcDbEntity
  8
0
390
0
  6
CONTINUOUS
 62
     3
100
AcDbLine
 10
-71.0
 20
6.75
 30
0.0
 11
-71.0
 21
6.0
 31
0.0
  0
LINE
  5
160
100
AcDbEntity
  8
0
390
0
  6
CONTINUOUS
 62
     3
100
AcDbLine
 10
-72.5
 20
6.75
 30
0.0
 11
-72.5
 21
6.0
 31
0.0
  0
LINE
  5
161
100
AcDbEntity
  8
0
390
0
  6
CONTINUOUS
 62
     3
100
AcDbLine
 10
-74.0
 20
6.75
 30
0.0
 11
-74.0
 21
6.0
 31
0.0
  0
LINE
  5
162
100
AcDbEntity
  8
0
390
0
  6
CONTINUOUS
 62
     3
100
AcDbLine
 10
-75.5
 20
6.75
 30
0.0
 11
-75.5
 21
6.0
 31
0.0
  0
LINE
  5
163
100
AcDbEntity
  8
0
390
0
  6
CONTINUOUS
 62
     3
100
AcDbLine
 10
-77.0
 20
6.75
 30
0.0
 11
-77.0
 21
6.0
 31
0.0
  0
LINE
  5
164
100
AcDbEntity
  8
0
390
0
  6
CONTINUOUS
 62
     3
100
AcDbLine
 10
-78.5
 20
6.75
 30
0.0
 11
-78.5
 21
6.0
 31
0.0
  0
LINE
  5
165
100
AcDbEntity
  8
0
390
0
  6
CONTINUOUS
 62
     3
100
AcDbLine
 10
-100.0
 20
-15.0
 30
0.0
 11
-98.15099
 21
-15.0
 31
0.0
  0
LINE
  5
166
100
AcDbEntity
  8
0
390
0
  6
CONTINUOUS
 62
     3
100
AcDbLine
 10
-96.702102
 20
-13.888229
 30
0.0
 11
-94.829612
 21
-6.9
 31
0.0
  0
LINE
  5
167
100
AcDbEntity
  8
0
390
0
  6
CONTINUOUS
 62
     3
100
AcDbLine
 10
-94.829612
 20
-6.9
 30
0.0
 11
-80.933013
 21
-6.9
 31
0.0
  0
LINE
  5
168
100
AcDbEntity
  8
0
390
0
  6
CONTINUOUS
 62
     3
100
AcDbLine
 10
-80.5
 20
-7.65
 30
0.0
 11
-80.933013
 21
-6.9
 31
0.0
  0
LINE
  5
169
100
AcDbEntity
  8
0
390
0
  6
CONTINUOUS
 62
     3
100
AcDbLine
 10
-80.5
 20
-7.65
 30
0.0
 11
-80.0
 21
-7.65
 31
0.0
  0
LINE
  5
16A
100
AcDbEntity
  8
0
390
0
  6
CONTINUOUS
 62
     3
100
AcDbLine
 10
-97.5
 20
-5.0
 30
0.0
 11
-80.0
 21
-5.0
 31
0.0
  0
LINE
  5
16B
100
AcDbEntity
  8
0
390
0
  6
CONTINUOUS
 62
     3
100
AcDbLine
 10
-100.0
 20
-6.1
 30
0.0
 11
-97.5
 21
-6.1
 31
0.0
  0
LINE
  5
16C
100
AcDbEntity
  8
0
390
0
  6
CONTINUOUS
 62
     3
100
AcDbLine
 10
-97.5
 20
6.1
 30
0.0
 11
-97.5
 21
-6.1
 31
0.0
  0
LINE
  5
16D
100
AcDbEntity
  8
0
390
0
  6
CONTINUOUS
 62
     3
100
AcDbLine
 10
-100.0
 20
6.1
 30
0.0
 11
-97.5
 21
6.1
 31
0.0
  0
LINE
  5
16E
100
AcDbEntity
  8
0
390
0
  6
CONTINUOUS
 62
     3
100
AcDbLine
 10
-97.5
 20
5.0
 30
0.0
 11
-80.0
 21
5.0
 31
0.0
  0
LINE
  5
16F
100
AcDbEntity
  8
0
390
0
  6
CONTINUOUS
 62
     3
100
AcDbLine
 10
-80.5
 20
7.65
 30
0.0
 11
-80.933013
 21
6.9
 31
0.0
  0
LINE
  5
170
100
AcDbEntity
  8
0
390
0
  6
CONTINUOUS
 62
     3
100
AcDbLine
 10
-80.5
 20
7.65
 30
0.0
 11
-80.0
 21
7.65
 31
0.0
  0
LINE
  5
171
100
AcDbEntity
  8
0
390
0
  6
CONTINUOUS
 62
     3
100
AcDbLine
 10
-96.702102
 20
13.888229
 30
0.0
 11
-94.829612
 21
6.9
 31
0.0
  0
LINE
  5
172
100
AcDbEntity
  8
0
390
0
  6
CONTINUOUS
 62
     3
100
AcDbLine
 10
-94.829612
 20
6.9
 30
0.0
 11
-80.933013
 21
6.9
 31
0.0
  0
LINE
  5
173
100
AcDbEntity
  8
0
390
0
  6
CONTINUOUS
 62
     3
100
AcDbLine
 10
-100.0
 20
15.0
 30
0.0
 11
-98.15099
 21
15.0
 31
0.0
  0
LINE
  5
174
100
AcDbEntity
  8
0
390
0
  6
CONTINUOUS
 62
     3
100
AcDbLine
 10
-80.0
 20
7.65
 30
0.0
 11
-80.0
 21
-7.65
 31
0.0
  0
LINE
  5
176
100
AcDbEntity
  8
0
390
0
  6
CENTER
 62
   110
100
AcDbLine
 10
-0.328293
 20
-10.5
 30
0.0
 11
3.374573
 21
10.5
 31
0.0
  0
LINE
  5
177
100
AcDbEntity
  8
0
390
0
  6
CENTER
 62
   110
100
AcDbLine
 10
-3.374573
 20
-10.5
 30
0.0
 11
0.328293
 21
10.5
 31
0.0
  0
LINE
  5
178
100
AcDbEntity
  8
0
390
0
  6
CONTINUOUS
 62
     3
100
AcDbLine
 10
-100.0
 20
15.0
 30
0.0
 11
-100.0
 21
-15.0
 31
0.0
  0
LINE
  5
179
100
AcDbEntity
  8
0
390
0
  6
CENTER
 62
   110
100
AcDbLine
 10
-104.0
 20
0.0
 30
0.0
 11
104.0
 21
0.0
 31
0.0
  0
ENDBLK
  5
17A
100
AcDbEntity
  8
0
370
    -2
390
0
100
AcDbBlockEnd
  0
BLOCK
  5
17B
100
AcDbEntity
  8
0
370
    -2
390
0
100
AcDbBlockBegin
  2
VF1016
 70
     0
 10
0.0
 20
0.0
 30
0.0
  3
VF1016
  1

  0
DIMENSION
  5
187
100
AcDbEntity
  8
0
390
0
  6
CONTINUOUS
 62
   110
100
AcDbDimension
  2
*D13
 10
-80.0
 20
32.0
 30
0.0
 11
-90.0
 21
32.0
 31
0.0
 70
   128
 71
     5
 72
     1
 41
0.9
 42
20.0
  1
\A1;<>
  3
MXDIMSTYLE
100
AcDbAlignedDimension
 13
-100.0
 23
15.0
 33
0.0
 14
-80.0
 24
9.65
 34
0.0
100
AcDbRotatedDimension
1001
ACAD
1000
DSTYLE
1002
{
1070
    41
1040
2.77
1070
    44
1040
2.286
1070
    75
1070
     1
1070
   140
1040
3.2
1070
   271
1070
     0
1070
   284
1070
     8
1070
   340
1005
C4
1002
}
  0
DIMENSION
  5
193
100
AcDbEntity
  8
0
390
0
  6
CONTINUOUS
 62
   255
100
AcDbDimension
  2
*D14
 10
80.0
 20
32.0
 30
0.0
 11
0.0
 21
32.0
 31
0.0
 70
   128
 71
     5
 72
     1
 41
0.9
 42
160.0
  1
\A1;(<>)
  3
MXDIMSTYLE
100
AcDbAlignedDimension
 13
-80.0
 23
9.65
 33
0.0
 14
80.0
 24
9.65
 34
0.0
100
AcDbRotatedDimension
1001
ACAD
1000
DSTYLE
1002
{
1070
    41
1040
2.77
1070
    44
1040
2.286
1070
    75
1070
     1
1070
   140
1040
3.2
1070
   271
1070
     0
1070
   284
1070
     8
1070
   340
1005
D1
1002
}
  0
DIMENSION
  5
1A0
100
AcDbEntity
  8
0
390
0
  6
CONTINUOUS
 62
   255
100
AcDbDimension
  2
*D15
 10
-100.0
 20
40.0
 30
0.0
 11
0.0
 21
40.0
 31
0.0
 70
   128
 71
     5
 72
     1
 41
0.9
 42
200.0
  1
\A1;<>±5%
  3
MXDIMSTYLE
100
AcDbAlignedDimension
 13
100.0
 23
15.0
 33
0.0
 14
-100.0
 24
15.0
 34
0.0
100
AcDbRotatedDimension
1001
ACAD
1000
DSTYLE
1002
{
1070
    41
1040
2.77
1070
    44
1040
2.286
1070
   140
1040
3.2
1070
   271
1070
     0
1070
   284
1070
     8
1002
}
  0
DIMENSION
  5
1AD
100
AcDbEntity
  8
0
390
0
  6
CONTINUOUS
 62
   110
100
AcDbDimension
  2
*D16
 10
-120.0
 20
-15.0
 30
0.0
 11
-120.0
 21
0.0
 31
0.0
 70
   128
 71
     5
 72
     1
 41
0.9
 42
30.0
  1
\A1;\U+2205<>
  3
MXDIMSTYLE
100
AcDbAlignedDimension
 13
-100.0
 23
15.0
 33
0.0
 14
-100.0
 24
-15.0
 34
0.0
 50
90.0
100
AcDbRotatedDimension
1001
ACAD
1000
DSTYLE
1002
{
1070
    41
1040
2.77
1070
    44
1040
2.286
1070
   140
1040
3.2
1070
   271
1070
     0
1070
   284
1070
     8
1002
}
  0
DIMENSION
  5
1B8
100
AcDbEntity
  8
0
390
0
  6
CONTINUOUS
 62
   110
100
AcDbDimension
  2
*D17
 10
100.0
 20
32.0
 30
0.0
 11
90.0
 21
32.0
 31
0.0
 70
   128
 71
     5
 72
     1
 41
0.9
 42
20.0
  1
\A1;<>
  3
MXDIMSTYLE
100
AcDbAlignedDimension
 13
80.0
 23
9.65
 33
0.0
 14
100.0
 24
15.0
 34
0.0
100
AcDbRotatedDimension
1001
ACAD
1000
DSTYLE
1002
{
1070
    41
1040
2.77
1070
    75
1070
     1
1070
    76
1070
     1
1070
   140
1040
3.2
1070
   271
1070
     0
1070
   284
1070
     8
1070
   340
1005
C4
1002
}
  0
DIMENSION
  5
1C5
100
AcDbEntity
  8
0
390
0
  6
CONTINUOUS
 62
   110
100
AcDbDimension
  2
*D18
 10
-16.0
 20
9.25
 30
0.0
 11
-16.0
 21
19.200001
 31
0.0
 70
   128
 71
     5
 72
     1
 41
0.9
 42
18.5
  1
\A1;\U+2205<>
  3
MXDIMSTYLE
100
AcDbAlignedDimension
 13
-3.154164
 23
-9.25
 33
0.0
 14
0.107885
 24
9.25
 34
0.0
 50
90.0
100
AcDbRotatedDimension
1001
ACAD
1000
DSTYLE
1002
{
1070
    41
1040
2.77
1070
    75
1070
     1
1070
    76
1070
     1
1070
   140
1040
3.2
1070
   271
1070
     1
1070
   284
1070
     8
1070
   340
1005
1BF
1002
}
  0
DIMENSION
  5
1D1
100
AcDbEntity
  8
0
390
0
  6
CONTINUOUS
 62
   110
100
AcDbDimension
  2
*D19
 10
-24.0
 20
6.5
 30
0.0
 11
-24.0
 21
16.0
 31
0.0
 70
   128
 71
     5
 72
     1
 41
0.9
 42
13.0
  1
\A1;\U+2205<>
  3
MXDIMSTYLE
100
AcDbAlignedDimension
 13
-2.669266
 23
-6.5
 33
0.0
 14
-0.377014
 24
6.5
 34
0.0
 50
90.0
100
AcDbRotatedDimension
1001
ACAD
1000
DSTYLE
1002
{
1070
    41
1040
2.77
1070
    75
1070
     1
1070
    76
1070
     1
1070
   140
1040
3.2
1070
   271
1070
     0
1070
   284
1070
     8
1070
   340
1005
103
1002
}
  0
ARC
  5
1D2
100
AcDbEntity
  8
0
390
0
  6
CONTINUOUS
 62
     3
100
AcDbCircle
 10
-71.2
 20
-8.45
 30
0.0
 40
0.8
100
AcDbArc
 50
180.0
 51
0.0
  0
ARC
  5
1D3
100
AcDbEntity
  8
0
390
0
  6
CONTINUOUS
 62
     3
100
AcDbCircle
 10
-72.8
 20
-7.3
 30
0.0
 40
0.8
100
AcDbArc
 50
0.0
 51
180.0
  0
ARC
  5
1D4
100
AcDbEntity
  8
0
390
0
  6
CONTINUOUS
 62
     3
100
AcDbCircle
 10
-74.4
 20
-8.45
 30
0.0
 40
0.8
100
AcDbArc
 50
180.0
 51
0.0
  0
ARC
  5
1D5
100
AcDbEntity
  8
0
390
0
  6
CONTINUOUS
 62
     3
100
AcDbCircle
 10
-76.0
 20
-7.3
 30
0.0
 40
0.8
100
AcDbArc
 50
0.0
 51
180.0
  0
ARC
  5
1D6
100
AcDbEntity
  8
0
390
0
  6
CONTINUOUS
 62
     3
100
AcDbCircle
 10
-77.6
 20
-8.45
 30
0.0
 40
0.8
100
AcDbArc
 50
180.0
 51
0.0
  0
ARC
  5
1D7
100
AcDbEntity
  8
0
390
0
  6
CONTINUOUS
 62
     3
100
AcDbCircle
 10
-79.2
 20
-7.3
 30
0.0
 40
0.8
100
AcDbArc
 50
0.0
 51
180.0
  0
ARC
  5
1D8
100
AcDbEntity
  8
0
390
0
  6
CONTINUOUS
 62
     3
100
AcDbCircle
 10
72.8
 20
-7.3
 30
0.0
 40
0.8
100
AcDbArc
 50
0.0
 51
180.0
  0
ARC
  5
1D9
100
AcDbEntity
  8
0
390
0
  6
CONTINUOUS
 62
     3
100
AcDbCircle
 10
74.4
 20
-8.45
 30
0.0
 40
0.8
100
AcDbArc
 50
180.0
 51
0.0
  0
ARC
  5
1DA
100
AcDbEntity
  8
0
390
0
  6
CONTINUOUS
 62
     3
100
AcDbCircle
 10
76.0
 20
-7.3
 30
0.0
 40
0.8
100
AcDbArc
 50
0.0
 51
180.0
  0
ARC
  5
1DB
100
AcDbEntity
  8
0
390
0
  6
CONTINUOUS
 62
     3
100
AcDbCircle
 10
77.6
 20
-8.45
 30
0.0
 40
0.8
100
AcDbArc
 50
180.0
 51
0.0
  0
ARC
  5
1DC
100
AcDbEntity
  8
0
390
0
  6
CONTINUOUS
 62
     3
100
AcDbCircle
 10
79.2
 20
-7.3
 30
0.0
 40
0.8
100
AcDbArc
 50
0.0
 51
180.0
  0
ARC
  5
1DD
100
AcDbEntity
  8
0
390
0
  6
CONTINUOUS
 62
     3
100
AcDbCircle
 10
71.2
 20
-8.45
 30
0.0
 40
0.8
100
AcDbArc
 50
180.0
 51
0.0
  0
ARC
  5
1DE
100
AcDbEntity
  8
0
390
0
  6
CONTINUOUS
 62
     3
100
AcDbCircle
 10
72.8
 20
7.3
 30
0.0
 40
0.8
100
AcDbArc
 50
180.0
 51
0.0
  0
ARC
  5
1DF
100
AcDbEntity
  8
0
390
0
  6
CONTINUOUS
 62
     3
100
AcDbCircle
 10
74.4
 20
8.45
 30
0.0
 40
0.8
100
AcDbArc
 50
0.0
 51
180.0
  0
ARC
  5
1E0
100
AcDbEntity
  8
0
390
0
  6
CONTINUOUS
 62
     3
100
AcDbCircle
 10
76.0
 20
7.3
 30
0.0
 40
0.8
100
AcDbArc
 50
180.0
 51
0.0
  0
ARC
  5
1E1
100
AcDbEntity
  8
0
390
0
  6
CONTINUOUS
 62
     3
100
AcDbCircle
 10
77.6
 20
8.45
 30
0.0
 40
0.8
100
AcDbArc
 50
0.0
 51
180.0
  0
ARC
  5
1E2
100
AcDbEntity
  8
0
390
0
  6
CONTINUOUS
 62
     3
100
AcDbCircle
 10
79.2
 20
7.3
 30
0.0
 40
0.8
100
AcDbArc
 50
180.0
 51
0.0
  0
ARC
  5
1E3
100
AcDbEntity
  8
0
390
0
  6
CONTINUOUS
 62
     3
100
AcDbCircle
 10
71.2
 20
8.45
 30
0.0
 40
0.8
100
AcDbArc
 50
0.0
 51
180.0
  0
ARC
  5
1E4
100
AcDbEntity
  8
0
390
0
  6
CONTINUOUS
 62
     3
100
AcDbCircle
 10
-71.2
 20
8.45
 30
0.0
 40
0.8
100
AcDbArc
 50
0.0
 51
180.0
  0
ARC
  5
1E5
100
AcDbEntity
  8
0
390
0
  6
CONTINUOUS
 62
     3
100
AcDbCircle
 10
-72.8
 20
7.3
 30
0.0
 40
0.8
100
AcDbArc
 50
180.0
 51
0.0
  0
ARC
  5
1E6
100
AcDbEntity
  8
0
390
0
  6
CONTINUOUS
 62
     3
100
AcDbCircle
 10
-74.4
 20
8.45
 30
0.0
 40
0.8
100
AcDbArc
 50
0.0
 51
180.0
  0
ARC
  5
1E7
100
AcDbEntity
  8
0
390
0
  6
CONTINUOUS
 62
     3
100
AcDbCircle
 10
-76.0
 20
7.3
 30
0.0
 40
0.8
100
AcDbArc
 50
180.0
 51
0.0
  0
ARC
  5
1E8
100
AcDbEntity
  8
0
390
0
  6
CONTINUOUS
 62
     3
100
AcDbCircle
 10
-77.6
 20
8.45
 30
0.0
 40
0.8
100
AcDbArc
 50
0.0
 51
180.0
  0
ARC
  5
1E9
100
AcDbEntity
  8
0
390
0
  6
CONTINUOUS
 62
     3
100
AcDbCircle
 10
-79.2
 20
7.3
 30
0.0
 40
0.8
100
AcDbArc
 50
180.0
 51
0.0
  0
ARC
  5
1EA
100
AcDbEntity
  8
0
390
0
  6
CONTINUOUS
 62
     3
100
AcDbCircle
 10
81.498749
 20
-9.7
 30
0.0
 40
1.0
100
AcDbArc
 50
0.0
 51
177.133994
  0
ARC
  5
1EB
100
AcDbEntity
  8
0
390
0
  6
CONTINUOUS
 62
     3
100
AcDbCircle
 10
81.498749
 20
9.7
 30
0.0
 40
1.0
100
AcDbArc
 50
182.866006
 51
0.0
  0
ARC
  5
1EC
100
AcDbEntity
  8
0
390
0
  6
CONTINUOUS
 62
     3
100
AcDbCircle
 10
98.150986
 20
-13.5
 30
0.0
 40
1.5
100
AcDbArc
 50
194.999994
 51
269.999982
  0
ARC
  5
1ED
100
AcDbEntity
  8
0
390
0
  6
CONTINUOUS
 62
     3
100
AcDbCircle
 10
98.150986
 20
13.5
 30
0.0
 40
1.5
100
AcDbArc
 50
90.000018
 51
165.000006
  0
ARC
  5
1EE
100
AcDbEntity
  8
0
390
0
  6
CONTINUOUS
 62
     3
100
AcDbCircle
 10
-81.498749
 20
-9.7
 30
0.0
 40
1.0
100
AcDbArc
 50
2.866006
 51
180.0
  0
ARC
  5
1EF
100
AcDbEntity
  8
0
390
0
  6
CONTINUOUS
 62
     3
100
AcDbCircle
 10
-81.498749
 20
9.7
 30
0.0
 40
1.0
100
AcDbArc
 50
180.0
 51
357.133994
  0
ARC
  5
1F0
100
AcDbEntity
  8
0
390
0
  6
CONTINUOUS
 62
     3
100
AcDbCircle
 10
-98.150986
 20
-13.5
 30
0.0
 40
1.5
100
AcDbArc
 50
270.000018
 51
345.000006
  0
ARC
  5
1F1
100
AcDbEntity
  8
0
390
0
  6
CONTINUOUS
 62
     3
100
AcDbCircle
 10
-98.150986
 20
13.5
 30
0.0
 40
1.5
100
AcDbArc
 50
14.999994
 51
89.999982
  0
LINE
  5
1F2
100
AcDbEntity
  8
0
390
0
  6
PHANTOM
 62
   110
100
AcDbLine
 10
-0.107885
 20
-9.25
 30
0.0
 11
71.2
 21
-9.25
 31
0.0
  0
LINE
  5
1F3
100
AcDbEntity
  8
0
390
0
  6
PHANTOM
 62
   110
100
AcDbLine
 10
0.377015
 20
-6.5
 30
0.0
 11
72.8
 21
-6.5
 31
0.0
  0
LINE
  5
1F4
100
AcDbEntity
  8
0
390
0
  6
PHANTOM
 62
   110
100
AcDbLine
 10
2.669265
 20
6.5
 30
0.0
 11
72.8
 21
6.5
 31
0.0
  0
LINE
  5
1F5
100
AcDbEntity
  8
0
390
0
  6
PHANTOM
 62
   110
100
AcDbLine
 10
3.154164
 20
9.25
 30
0.0
 11
71.2
 21
9.25
 31
0.0
  0
LINE
  5
1F6
100
AcDbEntity
  8
0
390
0
  6
CENTER
 62
   110
100
AcDbLine
 10
-0.636866
 20
-12.25
 30
0.0
 11
3.683145
 21
12.25
 31
0.0
  0
LINE
  5
1F7
100
AcDbEntity
  8
0
390
0
  6
CENTER
 62
   110
100
AcDbLine
 10
-3.683145
 20
-12.25
 30
0.0
 11
0.636866
 21
12.25
 31
0.0
  0
LINE
  5
1F8
100
AcDbEntity
  8
0
390
0
  6
CONTINUOUS
 62
     3
100
AcDbLine
 10
-70.4
 20
-8.45
 30
0.0
 11
-70.4
 21
-7.3
 31
0.0
  0
LINE
  5
1F9
100
AcDbEntity
  8
0
390
0
  6
CONTINUOUS
 62
     3
100
AcDbLine
 10
-72.0
 20
-8.45
 30
0.0
 11
-72.0
 21
-7.3
 31
0.0
  0
LINE
  5
1FA
100
AcDbEntity
  8
0
390
0
  6
CONTINUOUS
 62
     3
100
AcDbLine
 10
-73.6
 20
-8.45
 30
0.0
 11
-73.6
 21
-7.3
 31
0.0
  0
LINE
  5
1FB
100
AcDbEntity
  8
0
390
0
  6
CONTINUOUS
 62
     3
100
AcDbLine
 10
-75.2
 20
-8.45
 30
0.0
 11
-75.2
 21
-7.3
 31
0.0
  0
LINE
  5
1FC
100
AcDbEntity
  8
0
390
0
  6
CONTINUOUS
 62
     3
100
AcDbLine
 10
-76.8
 20
-8.45
 30
0.0
 11
-76.8
 21
-7.3
 31
0.0
  0
LINE
  5
1FD
100
AcDbEntity
  8
0
390
0
  6
CONTINUOUS
 62
     3
100
AcDbLine
 10
-78.4
 20
-8.45
 30
0.0
 11
-78.4
 21
-7.3
 31
0.0
  0
LINE
  5
1FE
100
AcDbEntity
  8
0
390
0
  6
CONTINUOUS
 62
     3
100
AcDbLine
 10
70.4
 20
-8.45
 30
0.0
 11
70.4
 21
-7.3
 31
0.0
  0
LINE
  5
1FF
100
AcDbEntity
  8
0
390
0
  6
CONTINUOUS
 62
     3
100
AcDbLine
 10
72.0
 20
-8.45
 30
0.0
 11
72.0
 21
-7.3
 31
0.0
  0
LINE
  5
200
100
AcDbEntity
  8
0
390
0
  6
CONTINUOUS
 62
     3
100
AcDbLine
 10
73.6
 20
-8.45
 30
0.0
 11
73.6
 21
-7.3
 31
0.0
  0
LINE
  5
201
100
AcDbEntity
  8
0
390
0
  6
CONTINUOUS
 62
     3
100
AcDbLine
 10
75.2
 20
-8.45
 30
0.0
 11
75.2
 21
-7.3
 31
0.0
  0
LINE
  5
202
100
AcDbEntity
  8
0
390
0
  6
CONTINUOUS
 62
     3
100
AcDbLine
 10
76.8
 20
-8.45
 30
0.0
 11
76.8
 21
-7.3
 31
0.0
  0
LINE
  5
203
100
AcDbEntity
  8
0
390
0
  6
CONTINUOUS
 62
     3
100
AcDbLine
 10
78.4
 20
-8.45
 30
0.0
 11
78.4
 21
-7.3
 31
0.0
  0
LINE
  5
204
100
AcDbEntity
  8
0
390
0
  6
PHANTOM
 62
   110
100
AcDbLine
 10
-71.2
 20
-9.25
 30
0.0
 11
-3.154164
 21
-9.25
 31
0.0
  0
LINE
  5
205
100
AcDbEntity
  8
0
390
0
  6
PHANTOM
 62
   110
100
AcDbLine
 10
-72.8
 20
-6.5
 30
0.0
 11
-2.669265
 21
-6.5
 31
0.0
  0
LINE
  5
206
100
AcDbEntity
  8
0
390
0
  6
CONTINUOUS
 62
     3
100
AcDbLine
 10
70.4
 20
8.45
 30
0.0
 11
70.4
 21
7.3
 31
0.0
  0
LINE
  5
207
100
AcDbEntity
  8
0
390
0
  6
CONTINUOUS
 62
     3
100
AcDbLine
 10
72.0
 20
8.45
 30
0.0
 11
72.0
 21
7.3
 31
0.0
  0
LINE
  5
208
100
AcDbEntity
  8
0
390
0
  6
CONTINUOUS
 62
     3
100
AcDbLine
 10
73.6
 20
8.45
 30
0.0
 11
73.6
 21
7.3
 31
0.0
  0
LINE
  5
209
100
AcDbEntity
  8
0
390
0
  6
CONTINUOUS
 62
     3
100
AcDbLine
 10
75.2
 20
8.45
 30
0.0
 11
75.2
 21
7.3
 31
0.0
  0
LINE
  5
20A
100
AcDbEntity
  8
0
390
0
  6
CONTINUOUS
 62
     3
100
AcDbLine
 10
76.8
 20
8.45
 30
0.0
 11
76.8
 21
7.3
 31
0.0
  0
LINE
  5
20B
100
AcDbEntity
  8
0
390
0
  6
CONTINUOUS
 62
     3
100
AcDbLine
 10
78.4
 20
8.45
 30
0.0
 11
78.4
 21
7.3
 31
0.0
  0
LINE
  5
20C
100
AcDbEntity
  8
0
390
0
  6
PHANTOM
 62
   110
100
AcDbLine
 10
-71.2
 20
9.25
 30
0.0
 11
0.107885
 21
9.25
 31
0.0
  0
LINE
  5
20D
100
AcDbEntity
  8
0
390
0
  6
PHANTOM
 62
   110
100
AcDbLine
 10
-72.8
 20
6.5
 30
0.0
 11
-0.377015
 21
6.5
 31
0.0
  0
LINE
  5
20E
100
AcDbEntity
  8
0
390
0
  6
CONTINUOUS
 62
     3
100
AcDbLine
 10
-70.4
 20
8.45
 30
0.0
 11
-70.4
 21
7.3
 31
0.0
  0
LINE
  5
20F
100
AcDbEntity
  8
0
390
0
  6
CONTINUOUS
 62
     3
100
AcDbLine
 10
-72.0
 20
8.45
 30
0.0
 11
-72.0
 21
7.3
 31
0.0
  0
LINE
  5
210
100
AcDbEntity
  8
0
390
0
  6
CONTINUOUS
 62
     3
100
AcDbLine
 10
-73.6
 20
8.45
 30
0.0
 11
-73.6
 21
7.3
 31
0.0
  0
LINE
  5
211
100
AcDbEntity
  8
0
390
0
  6
CONTINUOUS
 62
     3
100
AcDbLine
 10
-75.2
 20
8.45
 30
0.0
 11
-75.2
 21
7.3
 31
0.0
  0
LINE
  5
212
100
AcDbEntity
  8
0
390
0
  6
CONTINUOUS
 62
     3
100
AcDbLine
 10
-76.8
 20
8.45
 30
0.0
 11
-76.8
 21
7.3
 31
0.0
  0
LINE
  5
213
100
AcDbEntity
  8
0
390
0
  6
CONTINUOUS
 62
     3
100
AcDbLine
 10
-78.4
 20
8.45
 30
0.0
 11
-78.4
 21
7.3
 31
0.0
  0
LINE
  5
214
100
AcDbEntity
  8
0
390
0
  6
CONTINUOUS
 62
     3
100
AcDbLine
 10
100.0
 20
-8.6
 30
0.0
 11
97.5
 21
-8.6
 31
0.0
  0
LINE
  5
215
100
AcDbEntity
  8
0
390
0
  6
CONTINUOUS
 62
     3
100
AcDbLine
 10
97.5
 20
-8.0
 30
0.0
 11
80.0
 21
-8.0
 31
0.0
  0
LINE
  5
216
100
AcDbEntity
  8
0
390
0
  6
CONTINUOUS
 62
     3
100
AcDbLine
 10
82.498749
 20
-9.7
 30
0.0
 11
82.498749
 21
-10.0
 31
0.0
  0
LINE
  5
217
100
AcDbEntity
  8
0
390
0
  6
CONTINUOUS
 62
     3
100
AcDbLine
 10
82.498749
 20
9.7
 30
0.0
 11
82.498749
 21
10.0
 31
0.0
  0
LINE
  5
218
100
AcDbEntity
  8
0
390
0
  6
CONTINUOUS
 62
     3
100
AcDbLine
 10
100.0
 20
15.0
 30
0.0
 11
100.0
 21
-15.0
 31
0.0
  0
LINE
  5
219
100
AcDbEntity
  8
0
390
0
  6
CONTINUOUS
 62
     3
100
AcDbLine
 10
96.702099
 20
13.88823
 30
0.0
 11
95.66025
 21
9.999998
 31
0.0
  0
LINE
  5
21A
100
AcDbEntity
  8
0
390
0
  6
CONTINUOUS
 62
     3
100
AcDbLine
 10
96.702099
 20
-13.88823
 30
0.0
 11
95.66025
 21
-9.999998
 31
0.0
  0
LINE
  5
21B
100
AcDbEntity
  8
0
390
0
  6
CONTINUOUS
 62
     3
100
AcDbLine
 10
95.660255
 20
-10.0
 30
0.0
 11
82.498749
 21
-10.0
 31
0.0
  0
LINE
  5
21C
100
AcDbEntity
  8
0
390
0
  6
CONTINUOUS
 62
     3
100
AcDbLine
 10
95.660255
 20
10.0
 30
0.0
 11
82.5
 21
10.0
 31
0.0
  0
LINE
  5
21D
100
AcDbEntity
  8
0
390
0
  6
CONTINUOUS
 62
     3
100
AcDbLine
 10
97.5
 20
8.6
 30
0.0
 11
97.5
 21
-8.6
 31
0.0
  0
LINE
  5
21E
100
AcDbEntity
  8
0
390
0
  6
CONTINUOUS
 62
     3
100
AcDbLine
 10
80.5
 20
9.65
 30
0.0
 11
80.0
 21
9.65
 31
0.0
  0
LINE
  5
21F
100
AcDbEntity
  8
0
390
0
  6
CONTINUOUS
 62
     3
100
AcDbLine
 10
80.5
 20
-9.65
 30
0.0
 11
80.0
 21
-9.65
 31
0.0
  0
LINE
  5
220
100
AcDbEntity
  8
0
390
0
  6
CONTINUOUS
 62
     3
100
AcDbLine
 10
100.0
 20
8.6
 30
0.0
 11
97.5
 21
8.6
 31
0.0
  0
LINE
  5
221
100
AcDbEntity
  8
0
390
0
  6
CONTINUOUS
 62
     3
100
AcDbLine
 10
97.5
 20
8.0
 30
0.0
 11
80.0
 21
8.0
 31
0.0
  0
LINE
  5
222
100
AcDbEntity
  8
0
390
0
  6
CONTINUOUS
 62
     3
100
AcDbLine
 10
100.0
 20
-15.0
 30
0.0
 11
98.150986
 21
-15.0
 31
0.0
  0
LINE
  5
223
100
AcDbEntity
  8
0
390
0
  6
CONTINUOUS
 62
     3
100
AcDbLine
 10
100.0
 20
15.0
 30
0.0
 11
98.150986
 21
15.0
 31
0.0
  0
LINE
  5
224
100
AcDbEntity
  8
0
390
0
  6
CONTINUOUS
 62
     3
100
AcDbLine
 10
80.0
 20
9.65
 30
0.0
 11
80.0
 21
-9.65
 31
0.0
  0
LINE
  5
225
100
AcDbEntity
  8
0
390
0
  6
CONTINUOUS
 62
     3
100
AcDbLine
 10
-100.0
 20
-8.6
 30
0.0
 11
-97.5
 21
-8.6
 31
0.0
  0
LINE
  5
226
100
AcDbEntity
  8
0
390
0
  6
CONTINUOUS
 62
     3
100
AcDbLine
 10
-97.5
 20
-8.0
 30
0.0
 11
-80.0
 21
-8.0
 31
0.0
  0
LINE
  5
227
100
AcDbEntity
  8
0
390
0
  6
CONTINUOUS
 62
     3
100
AcDbLine
 10
-82.498749
 20
-9.7
 30
0.0
 11
-82.498749
 21
-10.0
 31
0.0
  0
LINE
  5
228
100
AcDbEntity
  8
0
390
0
  6
CONTINUOUS
 62
     3
100
AcDbLine
 10
-82.498749
 20
9.7
 30
0.0
 11
-82.498749
 21
10.0
 31
0.0
  0
LINE
  5
229
100
AcDbEntity
  8
0
390
0
  6
CONTINUOUS
 62
     3
100
AcDbLine
 10
-100.0
 20
15.0
 30
0.0
 11
-100.0
 21
-15.0
 31
0.0
  0
LINE
  5
22A
100
AcDbEntity
  8
0
390
0
  6
CENTER
 62
   110
100
AcDbLine
 10
-104.0
 20
0.0
 30
0.0
 11
104.0
 21
0.0
 31
0.0
  0
LINE
  5
22B
100
AcDbEntity
  8
0
390
0
  6
CONTINUOUS
 62
     3
100
AcDbLine
 10
-96.702099
 20
13.88823
 30
0.0
 11
-95.66025
 21
9.999998
 31
0.0
  0
LINE
  5
22C
100
AcDbEntity
  8
0
390
0
  6
CONTINUOUS
 62
     3
100
AcDbLine
 10
-96.702099
 20
-13.88823
 30
0.0
 11
-95.66025
 21
-9.999998
 31
0.0
  0
LINE
  5
22D
100
AcDbEntity
  8
0
390
0
  6
CONTINUOUS
 62
     3
100
AcDbLine
 10
-95.660255
 20
-10.0
 30
0.0
 11
-82.498749
 21
-10.0
 31
0.0
  0
LINE
  5
22E
100
AcDbEntity
  8
0
390
0
  6
CONTINUOUS
 62
     3
100
AcDbLine
 10
-95.660255
 20
10.0
 30
0.0
 11
-82.5
 21
10.0
 31
0.0
  0
LINE
  5
22F
100
AcDbEntity
  8
0
390
0
  6
CONTINUOUS
 62
     3
100
AcDbLine
 10
-97.5
 20
8.6
 30
0.0
 11
-97.5
 21
-8.6
 31
0.0
  0
LINE
  5
230
100
AcDbEntity
  8
0
390
0
  6
CONTINUOUS
 62
     3
100
AcDbLine
 10
-80.5
 20
9.65
 30
0.0
 11
-80.0
 21
9.65
 31
0.0
  0
LINE
  5
231
100
AcDbEntity
  8
0
390
0
  6
CONTINUOUS
 62
     3
100
AcDbLine
 10
-80.5
 20
-9.65
 30
0.0
 11
-80.0
 21
-9.65
 31
0.0
  0
LINE
  5
232
100
AcDbEntity
  8
0
390
0
  6
CONTINUOUS
 62
     3
100
AcDbLine
 10
-100.0
 20
8.6
 30
0.0
 11
-97.5
 21
8.6
 31
0.0
  0
LINE
  5
233
100
AcDbEntity
  8
0
390
0
  6
CONTINUOUS
 62
     3
100
AcDbLine
 10
-97.5
 20
8.0
 30
0.0
 11
-80.0
 21
8.0
 31
0.0
  0
LINE
  5
234
100
AcDbEntity
  8
0
390
0
  6
CONTINUOUS
 62
     3
100
AcDbLine
 10
-100.0
 20
-15.0
 30
0.0
 11
-98.150986
 21
-15.0
 31
0.0
  0
LINE
  5
235
100
AcDbEntity
  8
0
390
0
  6
CONTINUOUS
 62
     3
100
AcDbLine
 10
-100.0
 20
15.0
 30
0.0
 11
-98.150986
 21
15.0
 31
0.0
  0
LINE
  5
236
100
AcDbEntity
  8
0
390
0
  6
CONTINUOUS
 62
     3
100
AcDbLine
 10
-80.0
 20
9.65
 30
0.0
 11
-80.0
 21
-9.65
 31
0.0
  0
ENDBLK
  5
237
100
AcDbEntity
  8
0
370
    -2
390
0
100
AcDbBlockEnd
  0
BLOCK
  5
238
100
AcDbEntity
  8
0
370
    -2
390
0
100
AcDbBlockBegin
  2
VF1025
 70
     0
 10
0.0
 20
0.0
 30
0.0
  3
VF1025
  1

  0
DIMENSION
  5
244
100
AcDbEntity
  8
0
390
0
  6
CONTINUOUS
 62
   110
100
AcDbDimension
  2
*D20
 10
-80.0
 20
40.0
 30
0.0
 11
-90.0
 21
40.0
 31
0.0
 70
   128
 71
     5
 72
     1
 41
0.9
 42
20.0
  1
\A1;<>
  3
MXDIMSTYLE
100
AcDbAlignedDimension
 13
-100.0
 23
20.0
 33
0.0
 14
-80.0
 24
18.25
 34
0.0
100
AcDbRotatedDimension
1001
ACAD
1000
DSTYLE
1002
{
1070
    41
1040
2.77
1070
    44
1040
2.286
1070
    75
1070
     1
1070
   140
1040
3.2
1070
   271
1070
     0
1070
   284
1070
     8
1070
   340
1005
C4
1002
}
  0
DIMENSION
  5
250
100
AcDbEntity
  8
0
390
0
  6
CONTINUOUS
 62
   255
100
AcDbDimension
  2
*D21
 10
80.0
 20
40.0
 30
0.0
 11
0.0
 21
40.0
 31
0.0
 70
   128
 71
     5
 72
     1
 41
0.9
 42
160.0
  1
\A1;(<>)
  3
MXDIMSTYLE
100
AcDbAlignedDimension
 13
-80.0
 23
18.25
 33
0.0
 14
80.0
 24
18.25
 34
0.0
100
AcDbRotatedDimension
1001
ACAD
1000
DSTYLE
1002
{
1070
    41
1040
2.77
1070
    44
1040
2.286
1070
    75
1070
     1
1070
   140
1040
3.2
1070
   271
1070
     0
1070
   284
1070
     8
1070
   340
1005
D1
1002
}
  0
DIMENSION
  5
25D
100
AcDbEntity
  8
0
390
0
  6
CONTINUOUS
 62
   255
100
AcDbDimension
  2
*D22
 10
-100.0
 20
48.0
 30
0.0
 11
0.0
 21
48.0
 31
0.0
 70
   128
 71
     5
 72
     1
 41
0.9
 42
200.0
  1
\A1;<>±5%
  3
MXDIMSTYLE
100
AcDbAlignedDimension
 13
100.0
 23
20.0
 33
0.0
 14
-100.0
 24
20.0
 34
0.0
100
AcDbRotatedDimension
1001
ACAD
1000
DSTYLE
1002
{
1070
    41
1040
2.77
1070
    44
1040
2.286
1070
   140
1040
3.2
1070
   271
1070
     0
1070
   284
1070
     8
1002
}
  0
DIMENSION
  5
26A
100
AcDbEntity
  8
0
390
0
  6
CONTINUOUS
 62
   110
100
AcDbDimension
  2
*D23
 10
-120.0
 20
-20.0
 30
0.0
 11
-120.0
 21
0.0
 31
0.0
 70
   128
 71
     5
 72
     1
 41
0.9
 42
40.0
  1
\A1;\U+2205<>
  3
MXDIMSTYLE
100
AcDbAlignedDimension
 13
-100.0
 23
20.0
 33
0.0
 14
-100.0
 24
-20.0
 34
0.0
 50
90.0
100
AcDbRotatedDimension
1001
ACAD
1000
DSTYLE
1002
{
1070
    41
1040
2.77
1070
    44
1040
2.286
1070
   140
1040
3.2
1070
   271
1070
     0
1070
   284
1070
     8
1002
}
  0
DIMENSION
  5
275
100
AcDbEntity
  8
0
390
0
  6
CONTINUOUS
 62
   110
100
AcDbDimension
  2
*D24
 10
100.0
 20
40.0
 30
0.0
 11
90.0
 21
40.0
 31
0.0
 70
   128
 71
     5
 72
     1
 41
0.9
 42
20.0
  1
\A1;<>
  3
MXDIMSTYLE
100
AcDbAlignedDimension
 13
80.0
 23
18.25
 33
0.0
 14
100.0
 24
20.0
 34
0.0
100
AcDbRotatedDimension
1001
ACAD
1000
DSTYLE
1002
{
1070
    41
1040
2.77
1070
    75
1070
     1
1070
    76
1070
     1
1070
   140
1040
3.2
1070
   271
1070
     0
1070
   284
1070
     8
1070
   340
1005
C4
1002
}
  0
DIMENSION
  5
281
100
AcDbEntity
  8
0
390
0
  6
CONTINUOUS
 62
   110
100
AcDbDimension
  2
*D25
 10
-24.0
 20
12.75
 30
0.0
 11
-24.0
 21
27.200001
 31
0.0
 70
   128
 71
     5
 72
     1
 41
0.9
 42
25.5
  1
\A1;\U+2205<>
  3
MXDIMSTYLE
100
AcDbAlignedDimension
 13
-69.875
 23
-12.75
 33
0.0
 14
-69.875
 24
12.75
 34
0.0
 50
90.0
100
AcDbRotatedDimension
1001
ACAD
1000
DSTYLE
1002
{
1070
    41
1040
2.77
1070
    75
1070
     1
1070
    76
1070
     1
1070
   140
1040
3.2
1070
   271
1070
     1
1070
   284
1070
     8
1070
   340
1005
C4
1002
}
  0
DIMENSION
  5
28E
100
AcDbEntity
  8
0
390
0
  6
CONTINUOUS
 62
   110
100
AcDbDimension
  2
*D26
 10
-16.0
 20
17.0
 30
0.0
 11
-16.0
 21
24.0
 31
0.0
 70
   128
 71
     5
 72
     1
 41
0.9
 42
34.0
  1
\A1;\U+2205<>
  3
MXDIMSTYLE
100
AcDbAlignedDimension
 13
-67.625
 23
-17.0
 33
0.0
 14
-67.625
 24
17.0
 34
0.0
 50
90.0
100
AcDbRotatedDimension
1001
ACAD
1000
DSTYLE
1002
{
1070
    41
1040
2.77
1070
    75
1070
     1
1070
    76
1070
     1
1070
   140
1040
3.2
1070
   271
1070
     0
1070
   284
1070
     8
1070
   340
1005
288
1002
}
  0
ARC
  5
28F
100
AcDbEntity
  8
0
390
0
  6
CONTINUOUS
 62
     3
100
AcDbCircle
 10
67.625
 20
-15.875
 30
0.0
 40
1.125
100
AcDbArc
 50
180.0
 51
0.0
  0
ARC
  5
290
100
AcDbEntity
  8
0
390
0
  6
CONTINUOUS
 62
     3
100
AcDbCircle
 10
69.875
 20
-13.875
 30
0.0
 40
1.125
100
AcDbArc
 50
0.0
 51
180.0
  0
ARC
  5
291
100
AcDbEntity
  8
0
390
0
  6
CONTINUOUS
 62
     3
100
AcDbCircle
 10
72.125
 20
-15.875
 30
0.0
 40
1.125
100
AcDbArc
 50
180.0
 51
0.0
  0
ARC
  5
292
100
AcDbEntity
  8
0
390
0
  6
CONTINUOUS
 62
     3
100
AcDbCircle
 10
74.375
 20
-13.875
 30
0.0
 40
1.125
100
AcDbArc
 50
0.0
 51
180.0
  0
ARC
  5
293
100
AcDbEntity
  8
0
390
0
  6
CONTINUOUS
 62
     3
100
AcDbCircle
 10
76.625
 20
-15.875
 30
0.0
 40
1.125
100
AcDbArc
 50
180.0
 51
0.0
  0
ARC
  5
294
100
AcDbEntity
  8
0
390
0
  6
CONTINUOUS
 62
     3
100
AcDbCircle
 10
78.875
 20
-13.875
 30
0.0
 40
1.125
100
AcDbArc
 50
0.0
 51
180.0
  0
ARC
  5
295
100
AcDbEntity
  8
0
390
0
  6
CONTINUOUS
 62
     3
100
AcDbCircle
 10
-67.625
 20
-15.875
 30
0.0
 40
1.125
100
AcDbArc
 50
180.0
 51
0.0
  0
ARC
  5
296
100
AcDbEntity
  8
0
390
0
  6
CONTINUOUS
 62
     3
100
AcDbCircle
 10
-69.875
 20
-13.875
 30
0.0
 40
1.125
100
AcDbArc
 50
0.0
 51
180.0
  0
ARC
  5
297
100
AcDbEntity
  8
0
390
0
  6
CONTINUOUS
 62
     3
100
AcDbCircle
 10
-72.125
 20
-15.875
 30
0.0
 40
1.125
100
AcDbArc
 50
180.0
 51
0.0
  0
ARC
  5
298
100
AcDbEntity
  8
0
390
0
  6
CONTINUOUS
 62
     3
100
AcDbCircle
 10
-74.375
 20
-13.875
 30
0.0
 40
1.125
100
AcDbArc
 50
0.0
 51
180.0
  0
ARC
  5
299
100
AcDbEntity
  8
0
390
0
  6
CONTINUOUS
 62
     3
100
AcDbCircle
 10
-76.625
 20
-15.875
 30
0.0
 40
1.125
100
AcDbArc
 50
180.0
 51
0.0
  0
ARC
  5
29A
100
AcDbEntity
  8
0
390
0
  6
CONTINUOUS
 62
     3
100
AcDbCircle
 10
-78.875
 20
-13.875
 30
0.0
 40
1.125
100
AcDbArc
 50
0.0
 51
180.0
  0
ARC
  5
29B
100
AcDbEntity
  8
0
390
0
  6
CONTINUOUS
 62
     3
100
AcDbCircle
 10
67.625
 20
15.875
 30
0.0
 40
1.125
100
AcDbArc
 50
0.0
 51
180.0
  0
ARC
  5
29C
100
AcDbEntity
  8
0
390
0
  6
CONTINUOUS
 62
     3
100
AcDbCircle
 10
69.875
 20
13.875
 30
0.0
 40
1.125
100
AcDbArc
 50
180.0
 51
0.0
  0
ARC
  5
29D
100
AcDbEntity
  8
0
390
0
  6
CONTINUOUS
 62
     3
100
AcDbCircle
 10
72.125
 20
15.875
 30
0.0
 40
1.125
100
AcDbArc
 50
0.0
 51
180.0
  0
ARC
  5
29E
100
AcDbEntity
  8
0
390
0
  6
CONTINUOUS
 62
     3
100
AcDbCircle
 10
74.375
 20
13.875
 30
0.0
 40
1.125
100
AcDbArc
 50
180.0
 51
0.0
  0
ARC
  5
29F
100
AcDbEntity
  8
0
390
0
  6
CONTINUOUS
 62
     3
100
AcDbCircle
 10
76.625
 20
15.875
 30
0.0
 40
1.125
100
AcDbArc
 50
0.0
 51
180.0
  0
ARC
  5
2A0
100
AcDbEntity
  8
0
390
0
  6
CONTINUOUS
 62
     3
100
AcDbCircle
 10
78.875
 20
13.875
 30
0.0
 40
1.125
100
AcDbArc
 50
180.0
 51
0.0
  0
ARC
  5
2A1
100
AcDbEntity
  8
0
390
0
  6
CONTINUOUS
 62
     3
100
AcDbCircle
 10
-67.625
 20
15.875
 30
0.0
 40
1.125
100
AcDbArc
 50
0.0
 51
180.0
  0
ARC
  5
2A2
100
AcDbEntity
  8
0
390
0
  6
CONTINUOUS
 62
     3
100
AcDbCircle
 10
-69.875
 20
13.875
 30
0.0
 40
1.125
100
AcDbArc
 50
180.0
 51
0.0
  0
ARC
  5
2A3
100
AcDbEntity
  8
0
390
0
  6
CONTINUOUS
 62
     3
100
AcDbCircle
 10
-72.125
 20
15.875
 30
0.0
 40
1.125
100
AcDbArc
 50
0.0
 51
180.0
  0
ARC
  5
2A4
100
AcDbEntity
  8
0
390
0
  6
CONTINUOUS
 62
     3
100
AcDbCircle
 10
-74.375
 20
13.875
 30
0.0
 40
1.125
100
AcDbArc
 50
180.0
 51
0.0
  0
ARC
  5
2A5
100
AcDbEntity
  8
0
390
0
  6
CONTINUOUS
 62
     3
100
AcDbCircle
 10
-76.625
 20
15.875
 30
0.0
 40
1.125
100
AcDbArc
 50
0.0
 51
180.0
  0
ARC
  5
2A6
100
AcDbEntity
  8
0
390
0
  6
CONTINUOUS
 62
     3
100
AcDbCircle
 10
-78.875
 20
13.875
 30
0.0
 40
1.125
100
AcDbArc
 50
180.0
 51
0.0
  0
ARC
  5
2A7
100
AcDbEntity
  8
0
390
0
  6
CONTINUOUS
 62
     3
100
AcDbCircle
 10
98.150986
 20
-18.5
 30
0.0
 40
1.5
100
AcDbArc
 50
195.000031
 51
269.999982
  0
ARC
  5
2A8
100
AcDbEntity
  8
0
390
0
  6
CONTINUOUS
 62
     3
100
AcDbCircle
 10
98.150986
 20
18.5
 30
0.0
 40
1.5
100
AcDbArc
 50
90.000018
 51
164.999976
  0
ARC
  5
2A9
100
AcDbEntity
  8
0
390
0
  6
CONTINUOUS
 62
     3
100
AcDbCircle
 10
-98.150986
 20
-18.5
 30
0.0
 40
1.5
100
AcDbArc
 50
270.000018
 51
344.999969
  0
ARC
  5
2AA
100
AcDbEntity
  8
0
390
0
  6
CONTINUOUS
 62
     3
100
AcDbCircle
 10
-98.150986
 20
18.5
 30
0.0
 40
1.5
100
AcDbArc
 50
15.000024
 51
89.999982
  0
LINE
  5
2AB
100
AcDbEntity
  8
0
390
0
  6
PHANTOM
 62
   110
100
AcDbLine
 10
-1.474419
 20
-17.0
 30
0.0
 11
67.625
 21
-17.0
 31
0.0
  0
LINE
  5
2AC
100
AcDbEntity
  8
0
390
0
  6
PHANTOM
 62
   110
100
AcDbLine
 10
-0.725029
 20
-12.75
 30
0.0
 11
69.875
 21
-12.75
 31
0.0
  0
LINE
  5
2AD
100
AcDbEntity
  8
0
390
0
  6
PHANTOM
 62
   110
100
AcDbLine
 10
3.771309
 20
12.75
 30
0.0
 11
69.875
 21
12.75
 31
0.0
  0
LINE
  5
2AE
100
AcDbEntity
  8
0
390
0
  6
PHANTOM
 62
   110
100
AcDbLine
 10
4.520699
 20
17.0
 30
0.0
 11
67.625
 21
17.0
 31
0.0
  0
LINE
  5
2AF
100
AcDbEntity
  8
0
390
0
  6
CENTER
 62
   110
100
AcDbLine
 10
-5.04968
 20
-20.0
 30
0.0
 11
2.0034
 21
20.0
 31
0.0
  0
LINE
  5
2B0
100
AcDbEntity
  8
0
390
0
  6
CENTER
 62
   110
100
AcDbLine
 10
-2.0034
 20
-20.0
 30
0.0
 11
5.04968
 21
20.0
 31
0.0
  0
LINE
  5
2B1
100
AcDbEntity
  8
0
390
0
  6
CONTINUOUS
 62
     3
100
AcDbLine
 10
66.5
 20
-15.875
 30
0.0
 11
66.5
 21
-13.875
 31
0.0
  0
LINE
  5
2B2
100
AcDbEntity
  8
0
390
0
  6
CONTINUOUS
 62
     3
100
AcDbLine
 10
68.75
 20
-15.875
 30
0.0
 11
68.75
 21
-13.875
 31
0.0
  0
LINE
  5
2B3
100
AcDbEntity
  8
0
390
0
  6
CONTINUOUS
 62
     3
100
AcDbLine
 10
71.0
 20
-15.875
 30
0.0
 11
71.0
 21
-13.875
 31
0.0
  0
LINE
  5
2B4
100
AcDbEntity
  8
0
390
0
  6
CONTINUOUS
 62
     3
100
AcDbLine
 10
73.25
 20
-15.875
 30
0.0
 11
73.25
 21
-13.875
 31
0.0
  0
LINE
  5
2B5
100
AcDbEntity
  8
0
390
0
  6
CONTINUOUS
 62
     3
100
AcDbLine
 10
75.5
 20
-15.875
 30
0.0
 11
75.5
 21
-13.875
 31
0.0
  0
LINE
  5
2B6
100
AcDbEntity
  8
0
390
0
  6
CONTINUOUS
 62
     3
100
AcDbLine
 10
77.75
 20
-15.875
 30
0.0
 11
77.75
 21
-13.875
 31
0.0
  0
LINE
  5
2B7
100
AcDbEntity
  8
0
390
0
  6
PHANTOM
 62
   110
100
AcDbLine
 10
-67.625
 20
-17.0
 30
0.0
 11
-4.520699
 21
-17.0
 31
0.0
  0
LINE
  5
2B8
100
AcDbEntity
  8
0
390
0
  6
PHANTOM
 62
   110
100
AcDbLine
 10
-69.875
 20
-12.75
 30
0.0
 11
-3.771309
 21
-12.75
 31
0.0
  0
LINE
  5
2B9
100
AcDbEntity
  8
0
390
0
  6
CONTINUOUS
 62
     3
100
AcDbLine
 10
-66.5
 20
-15.875
 30
0.0
 11
-66.5
 21
-13.875
 31
0.0
  0
LINE
  5
2BA
100
AcDbEntity
  8
0
390
0
  6
CONTINUOUS
 62
     3
100
AcDbLine
 10
-68.75
 20
-15.875
 30
0.0
 11
-68.75
 21
-13.875
 31
0.0
  0
LINE
  5
2BB
100
AcDbEntity
  8
0
390
0
  6
CONTINUOUS
 62
     3
100
AcDbLine
 10
-71.0
 20
-15.875
 30
0.0
 11
-71.0
 21
-13.875
 31
0.0
  0
LINE
  5
2BC
100
AcDbEntity
  8
0
390
0
  6
CONTINUOUS
 62
     3
100
AcDbLine
 10
-73.25
 20
-15.875
 30
0.0
 11
-73.25
 21
-13.875
 31
0.0
  0
LINE
  5
2BD
100
AcDbEntity
  8
0
390
0
  6
CONTINUOUS
 62
     3
100
AcDbLine
 10
-75.5
 20
-15.875
 30
0.0
 11
-75.5
 21
-13.875
 31
0.0
  0
LINE
  5
2BE
100
AcDbEntity
  8
0
390
0
  6
CONTINUOUS
 62
     3
100
AcDbLine
 10
-77.75
 20
-15.875
 30
0.0
 11
-77.75
 21
-13.875
 31
0.0
  0
LINE
  5
2BF
100
AcDbEntity
  8
0
390
0
  6
CONTINUOUS
 62
     3
100
AcDbLine
 10
66.5
 20
15.875
 30
0.0
 11
66.5
 21
13.875
 31
0.0
  0
LINE
  5
2C0
100
AcDbEntity
  8
0
390
0
  6
CONTINUOUS
 62
     3
100
AcDbLine
 10
68.75
 20
15.875
 30
0.0
 11
68.75
 21
13.875
 31
0.0
  0
LINE
  5
2C1
100
AcDbEntity
  8
0
390
0
  6
CONTINUOUS
 62
     3
100
AcDbLine
 10
71.0
 20
15.875
 30
0.0
 11
71.0
 21
13.875
 31
0.0
  0
LINE
  5
2C2
100
AcDbEntity
  8
0
390
0
  6
CONTINUOUS
 62
     3
100
AcDbLine
 10
73.25
 20
15.875
 30
0.0
 11
73.25
 21
13.875
 31
0.0
  0
LINE
  5
2C3
100
AcDbEntity
  8
0
390
0
  6
CONTINUOUS
 62
     3
100
AcDbLine
 10
75.5
 20
15.875
 30
0.0
 11
75.5
 21
13.875
 31
0.0
  0
LINE
  5
2C4
100
AcDbEntity
  8
0
390
0
  6
CONTINUOUS
 62
     3
100
AcDbLine
 10
77.75
 20
15.875
 30
0.0
 11
77.75
 21
13.875
 31
0.0
  0
LINE
  5
2C5
100
AcDbEntity
  8
0
390
0
  6
PHANTOM
 62
   110
100
AcDbLine
 10
-67.625
 20
17.0
 30
0.0
 11
1.474419
 21
17.0
 31
0.0
  0
LINE
  5
2C6
100
AcDbEntity
  8
0
390
0
  6
PHANTOM
 62
   110
100
AcDbLine
 10
-69.875
 20
12.75
 30
0.0
 11
0.725029
 21
12.75
 31
0.0
  0
LINE
  5
2C7
100
AcDbEntity
  8
0
390
0
  6
CONTINUOUS
 62
     3
100
AcDbLine
 10
-66.5
 20
15.875
 30
0.0
 11
-66.5
 21
13.875
 31
0.0
  0
LINE
  5
2C8
100
AcDbEntity
  8
0
390
0
  6
CONTINUOUS
 62
     3
100
AcDbLine
 10
-68.75
 20
15.875
 30
0.0
 11
-68.75
 21
13.875
 31
0.0
  0
LINE
  5
2C9
100
AcDbEntity
  8
0
390
0
  6
CONTINUOUS
 62
     3
100
AcDbLine
 10
-71.0
 20
15.875
 30
0.0
 11
-71.0
 21
13.875
 31
0.0
  0
LINE
  5
2CA
100
AcDbEntity
  8
0
390
0
  6
CONTINUOUS
 62
     3
100
AcDbLine
 10
-73.25
 20
15.875
 30
0.0
 11
-73.25
 21
13.875
 31
0.0
  0
LINE
  5
2CB
100
AcDbEntity
  8
0
390
0
  6
CONTINUOUS
 62
     3
100
AcDbLine
 10
-75.5
 20
15.875
 30
0.0
 11
-75.5
 21
13.875
 31
0.0
  0
LINE
  5
2CC
100
AcDbEntity
  8
0
390
0
  6
CONTINUOUS
 62
     3
100
AcDbLine
 10
-77.75
 20
15.875
 30
0.0
 11
-77.75
 21
13.875
 31
0.0
  0
LINE
  5
2CD
100
AcDbEntity
  8
0
390
0
  6
CONTINUOUS
 62
     3
100
AcDbLine
 10
100.0
 20
-13.1
 30
0.0
 11
97.5
 21
-13.1
 31
0.0
  0
LINE
  5
2CE
100
AcDbEntity
  8
0
390
0
  6
CONTINUOUS
 62
     3
100
AcDbLine
 10
80.5
 20
-18.25
 30
0.0
 11
80.0
 21
-18.25
 31
0.0
  0
LINE
  5
2CF
100
AcDbEntity
  8
0
390
0
  6
CONTINUOUS
 62
     3
100
AcDbLine
 10
80.5
 20
-18.25
 30
0.0
 11
83.184679
 21
-13.6
 31
0.0
  0
LINE
  5
2D0
100
AcDbEntity
  8
0
390
0
  6
CONTINUOUS
 62
     3
100
AcDbLine
 10
80.5
 20
18.25
 30
0.0
 11
83.184679
 21
13.6
 31
0.0
  0
LINE
  5
2D1
100
AcDbEntity
  8
0
390
0
  6
CONTINUOUS
 62
     3
100
AcDbLine
 10
80.5
 20
18.25
 30
0.0
 11
80.0
 21
18.25
 31
0.0
  0
LINE
  5
2D2
100
AcDbEntity
  8
0
390
0
  6
CONTINUOUS
 62
     3
100
AcDbLine
 10
100.0
 20
20.0
 30
0.0
 11
100.0
 21
-20.0
 31
0.0
  0
LINE
  5
2D3
100
AcDbEntity
  8
0
390
0
  6
CONTINUOUS
 62
     3
100
AcDbLine
 10
97.5
 20
-12.0
 30
0.0
 11
80.0
 21
-12.0
 31
0.0
  0
LINE
  5
2D4
100
AcDbEntity
  8
0
390
0
  6
CONTINUOUS
 62
     3
100
AcDbLine
 10
96.702085
 20
-18.888234
 30
0.0
 11
95.28511
 21
-13.600005
 31
0.0
  0
LINE
  5
2D5
100
AcDbEntity
  8
0
390
0
  6
CONTINUOUS
 62
     3
100
AcDbLine
 10
96.702085
 20
18.888234
 30
0.0
 11
95.28511
 21
13.600005
 31
0.0
  0
LINE
  5
2D6
100
AcDbEntity
  8
0
390
0
  6
CONTINUOUS
 62
     3
100
AcDbLine
 10
100.0
 20
13.1
 30
0.0
 11
97.5
 21
13.1
 31
0.0
  0
LINE
  5
2D7
100
AcDbEntity
  8
0
390
0
  6
CONTINUOUS
 62
     3
100
AcDbLine
 10
97.5
 20
13.1
 30
0.0
 11
97.5
 21
-13.1
 31
0.0
  0
LINE
  5
2D8
100
AcDbEntity
  8
0
390
0
  6
CONTINUOUS
 62
     3
100
AcDbLine
 10
97.5
 20
12.0
 30
0.0
 11
80.0
 21
12.0
 31
0.0
  0
LINE
  5
2D9
100
AcDbEntity
  8
0
390
0
  6
CONTINUOUS
 62
     3
100
AcDbLine
 10
95.285126
 20
-13.6
 30
0.0
 11
83.184679
 21
-13.6
 31
0.0
  0
LINE
  5
2DA
100
AcDbEntity
  8
0
390
0
  6
CONTINUOUS
 62
     3
100
AcDbLine
 10
95.285126
 20
13.6
 30
0.0
 11
83.184679
 21
13.6
 31
0.0
  0
LINE
  5
2DB
100
AcDbEntity
  8
0
390
0
  6
CONTINUOUS
 62
     3
100
AcDbLine
 10
100.0
 20
-20.0
 30
0.0
 11
98.150986
 21
-20.0
 31
0.0
  0
LINE
  5
2DC
100
AcDbEntity
  8
0
390
0
  6
CONTINUOUS
 62
     3
100
AcDbLine
 10
100.0
 20
20.0
 30
0.0
 11
98.150986
 21
20.0
 31
0.0
  0
LINE
  5
2DD
100
AcDbEntity
  8
0
390
0
  6
CONTINUOUS
 62
     3
100
AcDbLine
 10
80.0
 20
18.25
 30
0.0
 11
80.0
 21
-18.25
 31
0.0
  0
LINE
  5
2DE
100
AcDbEntity
  8
0
390
0
  6
CONTINUOUS
 62
     3
100
AcDbLine
 10
-97.5
 20
-12.0
 30
0.0
 11
-80.0
 21
-12.0
 31
0.0
  0
LINE
  5
2DF
100
AcDbEntity
  8
0
390
0
  6
CONTINUOUS
 62
     3
100
AcDbLine
 10
-100.0
 20
-13.1
 30
0.0
 11
-97.5
 21
-13.1
 31
0.0
  0
LINE
  5
2E0
100
AcDbEntity
  8
0
390
0
  6
CONTINUOUS
 62
     3
100
AcDbLine
 10
-80.5
 20
-18.25
 30
0.0
 11
-80.0
 21
-18.25
 31
0.0
  0
LINE
  5
2E1
100
AcDbEntity
  8
0
390
0
  6
CONTINUOUS
 62
     3
100
AcDbLine
 10
-80.5
 20
-18.25
 30
0.0
 11
-83.184679
 21
-13.6
 31
0.0
  0
LINE
  5
2E2
100
AcDbEntity
  8
0
390
0
  6
CONTINUOUS
 62
     3
100
AcDbLine
 10
-80.5
 20
18.25
 30
0.0
 11
-83.184679
 21
13.6
 31
0.0
  0
LINE
  5
2E3
100
AcDbEntity
  8
0
390
0
  6
CONTINUOUS
 62
     3
100
AcDbLine
 10
-80.5
 20
18.25
 30
0.0
 11
-80.0
 21
18.25
 31
0.0
  0
LINE
  5
2E4
100
AcDbEntity
  8
0
390
0
  6
CONTINUOUS
 62
     3
100
AcDbLine
 10
-100.0
 20
20.0
 30
0.0
 11
-100.0
 21
-20.0
 31
0.0
  0
LINE
  5
2E5
100
AcDbEntity
  8
0
390
0
  6
CENTER
 62
   110
100
AcDbLine
 10
-104.0
 20
0.0
 30
0.0
 11
104.0
 21
0.0
 31
0.0
  0
LINE
  5
2E6
100
AcDbEntity
  8
0
390
0
  6
CONTINUOUS
 62
     3
100
AcDbLine
 10
-96.702085
 20
-18.888234
 30
0.0
 11
-95.28511
 21
-13.600005
 31
0.0
  0
LINE
  5
2E7
100
AcDbEntity
  8
0
390
0
  6
CONTINUOUS
 62
     3
100
AcDbLine
 10
-96.702085
 20
18.888234
 30
0.0
 11
-95.28511
 21
13.600005
 31
0.0
  0
LINE
  5
2E8
100
AcDbEntity
  8
0
390
0
  6
CONTINUOUS
 62
     3
100
AcDbLine
 10
-100.0
 20
13.1
 30
0.0
 11
-97.5
 21
13.1
 31
0.0
  0
LINE
  5
2E9
100
AcDbEntity
  8
0
390
0
  6
CONTINUOUS
 62
     3
100
AcDbLine
 10
-97.5
 20
13.1
 30
0.0
 11
-97.5
 21
-13.1
 31
0.0
  0
LINE
  5
2EA
100
AcDbEntity
  8
0
390
0
  6
CONTINUOUS
 62
     3
100
AcDbLine
 10
-97.5
 20
12.0
 30
0.0
 11
-80.0
 21
12.0
 31
0.0
  0
LINE
  5
2EB
100
AcDbEntity
  8
0
390
0
  6
CONTINUOUS
 62
     3
100
AcDbLine
 10
-95.285126
 20
-13.6
 30
0.0
 11
-83.184679
 21
-13.6
 31
0.0
  0
LINE
  5
2EC
100
AcDbEntity
  8
0
390
0
  6
CONTINUOUS
 62
     3
100
AcDbLine
 10
-95.285126
 20
13.6
 30
0.0
 11
-83.184679
 21
13.6
 31
0.0
  0
LINE
  5
2ED
100
AcDbEntity
  8
0
390
0
  6
CONTINUOUS
 62
     3
100
AcDbLine
 10
-100.0
 20
-20.0
 30
0.0
 11
-98.150986
 21
-20.0
 31
0.0
  0
LINE
  5
2EE
100
AcDbEntity
  8
0
390
0
  6
CONTINUOUS
 62
     3
100
AcDbLine
 10
-100.0
 20
20.0
 30
0.0
 11
-98.150986
 21
20.0
 31
0.0
  0
LINE
  5
2EF
100
AcDbEntity
  8
0
390
0
  6
CONTINUOUS
 62
     3
100
AcDbLine
 10
-80.0
 20
18.25
 30
0.0
 11
-80.0
 21
-18.25
 31
0.0
  0
ENDBLK
  5
2F0
100
AcDbEntity
  8
0
370
    -2
390
0
100
AcDbBlockEnd
  0
BLOCK
  5
2C
100
AcDbEntity
  8
0
370
    -2
390
0
  6
ByBlock
 62
     0
100
AcDbBlockBegin
  2
_OPEN30
 70
     2
 10
0.0
 20
0.0
 30
0.0
  3
_OPEN30
  1

  0
LINE
  5
2D
100
AcDbEntity
  8
0
370
    -2
390
0
  6
ByBlock
 62
     0
100
AcDbLine
 10
-1.0
 20
0.267949
 30
0.0
 11
0.0
 21
0.0
 31
0.0
  0
LINE
  5
2E
100
AcDbEntity
  8
0
370
    -2
390
0
  6
ByBlock
 62
     0
100
AcDbLine
 10
0.0
 20
0.0
 30
0.0
 11
-1.0
 21
-0.267949
 31
0.0
  0
LINE
  5
2F
100
AcDbEntity
  8
0
370
    -2
390
0
  6
ByBlock
 62
     0
100
AcDbLine
 10
0.0
 20
0.0
 30
0.0
 11
-1.0
 21
0.0
 31
0.0
  0
ENDBLK
  5
30
100
AcDbEntity
  8
0
370
    -2
390
0
  6
ByBlock
 62
     0
100
AcDbBlockEnd
  0
BLOCK
  5
BF
100
AcDbEntity
  8
0
370
    -2
390
0
  6
ByBlock
 62
     0
100
AcDbBlockBegin
  2
*D6
 70
     1
 10
0.0
 20
0.0
 30
0.0
  3
*D6
  1

  0
LINE
  5
C0
100
AcDbEntity
  8
0
390
0
  6
CONTINUOUS
 62
   110
100
AcDbLine
 10
-100.0
 20
32.0
 30
0.0
 11
-80.0
 21
32.0
 31
0.0
  0
LINE
  5
C1
100
AcDbEntity
  8
0
390
0
  6
CONTINUOUS
 62
   110
100
AcDbLine
 10
-80.0
 20
9.65
 30
0.0
 11
-80.0
 21
34.286
 31
0.0
  0
INSERT
  5
C2
100
AcDbEntity
  8
0
390
0
  6
CONTINUOUS
 62
   110
100
AcDbBlockReference
  2
_OPEN30
 10
-100.0
 20
32.0
 30
0.0
 41
2.77
 42
2.77
 43
2.77
 50
180.0
  0
INSERT
  5
C3
100
AcDbEntity
  8
0
390
0
  6
CONTINUOUS
 62
   110
100
AcDbBlockReference
  2
_OPEN30
 10
-80.0
 20
32.0
 30
0.0
 41
2.77
 42
2.77
 43
2.77
  0
MTEXT
  5
C5
100
AcDbEntity
  8
0
390
0
  6
CONTINUOUS
 62
   110
100
AcDbMText
 10
-90.0
 20
34.6
 30
0.0
 40
3.2
 41
0.0
 71
     5
 72
     1
  1
\A1;20
  7
MX_DIMTXSTY_2
 73
     1
 44
0.9
  0
POINT
  5
C6
100
AcDbEntity
  8
DEFPOINTS
390
0
  6
CONTINUOUS
 62
     0
100
AcDbPoint
 10
-100.0
 20
15.0
 30
0.0
  0
POINT
  5
C7
100
AcDbEntity
  8
DEFPOINTS
390
0
  6
CONTINUOUS
 62
     0
100
AcDbPoint
 10
-80.0
 20
7.65
 30
0.0
  0
POINT
  5
C8
100
AcDbEntity
  8
DEFPOINTS
390
0
  6
CONTINUOUS
 62
     0
100
AcDbPoint
 10
-80.0
 20
32.0
 30
0.0
  0
ENDBLK
  5
C9
100
AcDbEntity
  8
0
370
    -2
390
0
  6
ByBlock
 62
     0
100
AcDbBlockEnd
  0
BLOCK
  5
CC
100
AcDbEntity
  8
0
370
    -2
390
0
  6
ByBlock
 62
     0
100
AcDbBlockBegin
  2
*D7
 70
     1
 10
0.0
 20
0.0
 30
0.0
  3
*D7
  1

  0
LINE
  5
CD
100
AcDbEntity
  8
0
390
0
  6
CONTINUOUS
 62
   255
100
AcDbLine
 10
-80.0
 20
32.0
 30
0.0
 11
80.0
 21
32.0
 31
0.0
  0
LINE
  5
CE
100
AcDbEntity
  8
0
390
0
  6
CONTINUOUS
 62
   255
100
AcDbLine
 10
80.0
 20
9.65
 30
0.0
 11
80.0
 21
34.286
 31
0.0
  0
INSERT
  5
CF
100
AcDbEntity
  8
0
390
0
  6
CONTINUOUS
 62
   255
100
AcDbBlockReference
  2
_OPEN30
 10
-80.0
 20
32.0
 30
0.0
 41
2.77
 42
2.77
 43
2.77
 50
180.0
  0
INSERT
  5
D0
100
AcDbEntity
  8
0
390
0
  6
CONTINUOUS
 62
   255
100
AcDbBlockReference
  2
_OPEN30
 10
80.0
 20
32.0
 30
0.0
 41
2.77
 42
2.77
 43
2.77
  0
MTEXT
  5
D2
100
AcDbEntity
  8
0
390
0
  6
CONTINUOUS
 62
   255
100
AcDbMText
 10
0.0
 20
34.6
 30
0.0
 40
3.2
 41
0.0
 71
     5
 72
     1
  1
\A1;(160)
  7
MX_DIMTXSTY_3
 73
     1
 44
0.9
  0
POINT
  5
D3
100
AcDbEntity
  8
DEFPOINTS
390
0
  6
CONTINUOUS
 62
     0
100
AcDbPoint
 10
-80.0
 20
7.65
 30
0.0
  0
POINT
  5
D4
100
AcDbEntity
  8
DEFPOINTS
390
0
  6
CONTINUOUS
 62
     0
100
AcDbPoint
 10
80.0
 20
7.65
 30
0.0
  0
POINT
  5
D5
100
AcDbEntity
  8
DEFPOINTS
390
0
  6
CONTINUOUS
 62
     0
100
AcDbPoint
 10
80.0
 20
32.0
 30
0.0
  0
ENDBLK
  5
D6
100
AcDbEntity
  8
0
370
    -2
390
0
  6
ByBlock
 62
     0
100
AcDbBlockEnd
  0
BLOCK
  5
D9
100
AcDbEntity
  8
0
370
    -2
390
0
  6
ByBlock
 62
     0
100
AcDbBlockBegin
  2
*D8
 70
     1
 10
0.0
 20
0.0
 30
0.0
  3
*D8
  1

  0
LINE
  5
DA
100
AcDbEntity
  8
0
390
0
  6
CONTINUOUS
 62
   255
100
AcDbLine
 10
100.0
 20
40.0
 30
0.0
 11
-100.0
 21
40.0
 31
0.0
  0
LINE
  5
DB
100
AcDbEntity
  8
0
390
0
  6
CONTINUOUS
 62
   255
100
AcDbLine
 10
100.0
 20
17.0
 30
0.0
 11
100.0
 21
42.286
 31
0.0
  0
LINE
  5
DC
100
AcDbEntity
  8
0
390
0
  6
CONTINUOUS
 62
   255
100
AcDbLine
 10
-100.0
 20
17.0
 30
0.0
 11
-100.0
 21
42.286
 31
0.0
  0
INSERT
  5
DD
100
AcDbEntity
  8
0
390
0
  6
CONTINUOUS
 62
   255
100
AcDbBlockReference
  2
_OPEN30
 10
100.0
 20
40.0
 30
0.0
 41
2.77
 42
2.77
 43
2.77
  0
INSERT
  5
DE
100
AcDbEntity
  8
0
390
0
  6
CONTINUOUS
 62
   255
100
AcDbBlockReference
  2
_OPEN30
 10
-100.0
 20
40.0
 30
0.0
 41
2.77
 42
2.77
 43
2.77
 50
180.0
  0
MTEXT
  5
DF
100
AcDbEntity
  8
0
390
0
  6
CONTINUOUS
 62
   255
100
AcDbMText
 10
0.0
 20
42.6
 30
0.0
 40
3.2
 41
0.0
 71
     5
 72
     1
  1
\A1;200±5%
 11
1.0
 21
0.0
 31
0.0
 73
     1
 44
0.9
  0
POINT
  5
E0
100
AcDbEntity
  8
DEFPOINTS
390
0
  6
CONTINUOUS
 62
     0
100
AcDbPoint
 10
100.0
 20
15.0
 30
0.0
  0
POINT
  5
E1
100
AcDbEntity
  8
DEFPOINTS
390
0
  6
CONTINUOUS
 62
     0
100
AcDbPoint
 10
-100.0
 20
15.0
 30
0.0
  0
POINT
  5
E2
100
AcDbEntity
  8
DEFPOINTS
390
0
  6
CONTINUOUS
 62
     0
100
AcDbPoint
 10
-100.0
 20
40.0
 30
0.0
  0
ENDBLK
  5
E3
100
AcDbEntity
  8
0
370
    -2
390
0
  6
ByBlock
 62
     0
100
AcDbBlockEnd
  0
BLOCK
  5
E6
100
AcDbEntity
  8
0
370
    -2
390
0
  6
ByBlock
 62
     0
100
AcDbBlockBegin
  2
*D9
 70
     1
 10
0.0
 20
0.0
 30
0.0
  3
*D9
  1

  0
LINE
  5
E7
100
AcDbEntity
  8
0
390
0
  6
CONTINUOUS
 62
   110
100
AcDbLine
 10
-120.0
 20
15.0
 30
0.0
 11
-120.0
 21
-15.0
 31
0.0
  0
LINE
  5
E8
100
AcDbEntity
  8
0
390
0
  6
CONTINUOUS
 62
   110
100
AcDbLine
 10
-102.0
 20
15.0
 30
0.0
 11
-122.286
 21
15.0
 31
0.0
  0
LINE
  5
E9
100
AcDbEntity
  8
0
390
0
  6
CONTINUOUS
 62
   110
100
AcDbLine
 10
-102.0
 20
-15.0
 30
0.0
 11
-122.286
 21
-15.0
 31
0.0
  0
INSERT
  5
EA
100
AcDbEntity
  8
0
390
0
  6
CONTINUOUS
 62
   110
100
AcDbBlockReference
  2
_OPEN30
 10
-120.0
 20
15.0
 30
0.0
 41
2.77
 42
2.77
 43
2.77
 50
90.0
  0
INSERT
  5
EB
100
AcDbEntity
  8
0
390
0
  6
CONTINUOUS
 62
   110
100
AcDbBlockReference
  2
_OPEN30
 10
-120.0
 20
-15.0
 30
0.0
 41
2.77
 42
2.77
 43
2.77
 50
270.0
  0
MTEXT
  5
EC
100
AcDbEntity
  8
0
390
0
  6
CONTINUOUS
 62
   110
100
AcDbMText
 10
-122.6
 20
0.0
 30
0.0
 40
3.2
 41
0.0
 71
     5
 72
     1
  1
\A1;\U+220530
 11
0.0
 21
1.0
 31
0.0
 73
     1
 44
0.9
  0
POINT
  5
ED
100
AcDbEntity
  8
DEFPOINTS
390
0
  6
CONTINUOUS
 62
     0
100
AcDbPoint
 10
-100.0
 20
15.0
 30
0.0
  0
POINT
  5
EE
100
AcDbEntity
  8
DEFPOINTS
390
0
  6
CONTINUOUS
 62
     0
100
AcDbPoint
 10
-100.0
 20
-15.0
 30
0.0
  0
POINT
  5
EF
100
AcDbEntity
  8
DEFPOINTS
390
0
  6
CONTINUOUS
 62
     0
100
AcDbPoint
 10
-120.0
 20
-15.0
 30
0.0
  0
ENDBLK
  5
F0
100
AcDbEntity
  8
0
370
    -2
390
0
  6
ByBlock
 62
     0
100
AcDbBlockEnd
  0
BLOCK
  5
F3
100
AcDbEntity
  8
0
370
    -2
390
0
  6
ByBlock
 62
     0
100
AcDbBlockBegin
  2
*D10
 70
     1
 10
0.0
 20
0.0
 30
0.0
  3
*D10
  1

  0
LINE
  5
F4
100
AcDbEntity
  8
0
390
0
  6
CONTINUOUS
 62
   110
100
AcDbLine
 10
80.0
 20
32.0
 30
0.0
 11
100.0
 21
32.0
 31
0.0
  0
INSERT
  5
F5
100
AcDbEntity
  8
0
390
0
  6
CONTINUOUS
 62
   110
100
AcDbBlockReference
  2
_OPEN30
 10
80.0
 20
32.0
 30
0.0
 41
2.77
 42
2.77
 43
2.77
 50
180.0
  0
INSERT
  5
F6
100
AcDbEntity
  8
0
390
0
  6
CONTINUOUS
 62
   110
100
AcDbBlockReference
  2
_OPEN30
 10
100.0
 20
32.0
 30
0.0
 41
2.77
 42
2.77
 43
2.77
  0
MTEXT
  5
F7
100
AcDbEntity
  8
0
390
0
  6
CONTINUOUS
 62
   110
100
AcDbMText
 10
90.0
 20
34.6
 30
0.0
 40
3.2
 41
0.0
 71
     5
 72
     1
  1
\A1;20
  7
MX_DIMTXSTY_2
 73
     1
 44
0.9
  0
POINT
  5
F8
100
AcDbEntity
  8
DEFPOINTS
390
0
  6
CONTINUOUS
 62
     0
100
AcDbPoint
 10
80.0
 20
7.65
 30
0.0
  0
POINT
  5
F9
100
AcDbEntity
  8
DEFPOINTS
390
0
  6
CONTINUOUS
 62
     0
100
AcDbPoint
 10
100.0
 20
15.0
 30
0.0
  0
POINT
  5
FA
100
AcDbEntity
  8
DEFPOINTS
390
0
  6
CONTINUOUS
 62
     0
100
AcDbPoint
 10
100.0
 20
32.0
 30
0.0
  0
ENDBLK
  5
FB
100
AcDbEntity
  8
0
370
    -2
390
0
  6
ByBlock
 62
     0
100
AcDbBlockEnd
  0
BLOCK
  5
FE
100
AcDbEntity
  8
0
370
    -2
390
0
  6
ByBlock
 62
     0
100
AcDbBlockBegin
  2
*D11
 70
     1
 10
0.0
 20
0.0
 30
0.0
  3
*D11
  1

  0
LINE
  5
FF
100
AcDbEntity
  8
0
390
0
  6
CONTINUOUS
 62
   110
100
AcDbLine
 10
-16.0
 20
-7.5
 30
0.0
 11
-16.0
 21
7.5
 31
0.0
  0
LINE
  5
100
100
AcDbEntity
  8
0
390
0
  6
CONTINUOUS
 62
   110
100
AcDbLine
 10
-16.0
 20
7.5
 30
0.0
 11
-16.0
 21
20.8
 31
0.0
  0
INSERT
  5
101
100
AcDbEntity
  8
0
390
0
  6
CONTINUOUS
 62
   110
100
AcDbBlockReference
  2
_OPEN30
 10
-16.0
 20
-7.5
 30
0.0
 41
2.77
 42
2.77
 43
2.77
 50
270.0
  0
INSERT
  5
102
100
AcDbEntity
  8
0
390
0
  6
CONTINUOUS
 62
   110
100
AcDbBlockReference
  2
_OPEN30
 10
-16.0
 20
7.5
 30
0.0
 41
2.77
 42
2.77
 43
2.77
 50
90.0
  0
MTEXT
  5
104
100
AcDbEntity
  8
0
390
0
  6
CONTINUOUS
 62
   110
100
AcDbMText
 10
-18.6
 20
16.0
 30
0.0
 40
3.2
 41
0.0
 71
     5
 72
     1
  1
\A1;\U+220515
  7
MX_DIMTXSTY_4
 11
0.0
 21
1.0
 31
0.0
 73
     1
 44
0.9
  0
POINT
  5
105
100
AcDbEntity
  8
DEFPOINTS
390
0
  6
CONTINUOUS
 62
     0
100
AcDbPoint
 10
-2.845592
 20
-7.5
 30
0.0
  0
POINT
  5
106
100
AcDbEntity
  8
DEFPOINTS
390
0
  6
CONTINUOUS
 62
     0
100
AcDbPoint
 10
-0.200687
 20
7.5
 30
0.0
  0
POINT
  5
107
100
AcDbEntity
  8
DEFPOINTS
390
0
  6
CONTINUOUS
 62
     0
100
AcDbPoint
 10
-16.0
 20
7.5
 30
0.0
  0
ENDBLK
  5
108
100
AcDbEntity
  8
0
370
    -2
390
0
  6
ByBlock
 62
     0
100
AcDbBlockEnd
  0
BLOCK
  5
10B
100
AcDbEntity
  8
0
370
    -2
390
0
  6
ByBlock
 62
     0
100
AcDbBlockBegin
  2
*D12
 70
     1
 10
0.0
 20
0.0
 30
0.0
  3
*D12
  1

  0
LINE
  5
10C
100
AcDbEntity
  8
0
390
0
  6
CONTINUOUS
 62
   110
100
AcDbLine
 10
-24.0
 20
-5.25
 30
0.0
 11
-24.0
 21
5.25
 31
0.0
  0
LINE
  5
10D
100
AcDbEntity
  8
0
390
0
  6
CONTINUOUS
 62
   110
100
AcDbLine
 10
-24.0
 20
5.25
 30
0.0
 11
-24.0
 21
24.0
 31
0.0
  0
INSERT
  5
10E
100
AcDbEntity
  8
0
390
0
  6
CONTINUOUS
 62
   110
100
AcDbBlockReference
  2
_OPEN30
 10
-24.0
 20
-5.25
 30
0.0
 41
2.77
 42
2.77
 43
2.77
 50
270.0
  0
INSERT
  5
10F
100
AcDbEntity
  8
0
390
0
  6
CONTINUOUS
 62
   110
100
AcDbBlockReference
  2
_OPEN30
 10
-24.0
 20
5.25
 30
0.0
 41
2.77
 42
2.77
 43
2.77
 50
90.0
  0
MTEXT
  5
111
100
AcDbEntity
  8
0
390
0
  6
CONTINUOUS
 62
   110
100
AcDbMText
 10
-26.6
 20
16.0
 30
0.0
 40
3.2
 41
0.0
 71
     5
 72
     1
  1
\A1;\U+220510.5
  7
MX_DIMTXSTY_5
 11
0.0
 21
1.0
 31
0.0
 73
     1
 44
0.9
  0
POINT
  5
112
100
AcDbEntity
  8
DEFPOINTS
390
0
  6
CONTINUOUS
 62
     0
100
AcDbPoint
 10
-2.448856
 20
-5.25
 30
0.0
  0
POINT
  5
113
100
AcDbEntity
  8
DEFPOINTS
390
0
  6
CONTINUOUS
 62
     0
100
AcDbPoint
 10
-0.597424
 20
5.25
 30
0.0
  0
POINT
  5
114
100
AcDbEntity
  8
DEFPOINTS
390
0
  6
CONTINUOUS
 62
     0
100
AcDbPoint
 10
-24.0
 20
5.25
 30
0.0
  0
ENDBLK
  5
115
100
AcDbEntity
  8
0
370
    -2
390
0
  6
ByBlock
 62
     0
100
AcDbBlockEnd
  0
BLOCK
  5
17D
100
AcDbEntity
  8
0
370
    -2
390
0
  6
ByBlock
 62
     0
100
AcDbBlockBegin
  2
*D13
 70
     1
 10
0.0
 20
0.0
 30
0.0
  3
*D13
  1

  0
LINE
  5
17E
100
AcDbEntity
  8
0
390
0
  6
CONTINUOUS
 62
   110
100
AcDbLine
 10
-100.0
 20
32.0
 30
0.0
 11
-80.0
 21
32.0
 31
0.0
  0
LINE
  5
17F
100
AcDbEntity
  8
0
390
0
  6
CONTINUOUS
 62
   110
100
AcDbLine
 10
-80.0
 20
11.65
 30
0.0
 11
-80.0
 21
34.286
 31
0.0
  0
INSERT
  5
180
100
AcDbEntity
  8
0
390
0
  6
CONTINUOUS
 62
   110
100
AcDbBlockReference
  2
_OPEN30
 10
-100.0
 20
32.0
 30
0.0
 41
2.77
 42
2.77
 43
2.77
 50
180.0
  0
INSERT
  5
181
100
AcDbEntity
  8
0
390
0
  6
CONTINUOUS
 62
   110
100
AcDbBlockReference
  2
_OPEN30
 10
-80.0
 20
32.0
 30
0.0
 41
2.77
 42
2.77
 43
2.77
  0
MTEXT
  5
182
100
AcDbEntity
  8
0
390
0
  6
CONTINUOUS
 62
   110
100
AcDbMText
 10
-90.0
 20
34.6
 30
0.0
 40
3.2
 41
0.0
 71
     5
 72
     1
  1
\A1;20
  7
MX_DIMTXSTY_2
 73
     1
 44
0.9
  0
POINT
  5
183
100
AcDbEntity
  8
DEFPOINTS
390
0
  6
CONTINUOUS
 62
     0
100
AcDbPoint
 10
-100.0
 20
15.0
 30
0.0
  0
POINT
  5
184
100
AcDbEntity
  8
DEFPOINTS
390
0
  6
CONTINUOUS
 62
     0
100
AcDbPoint
 10
-80.0
 20
9.65
 30
0.0
  0
POINT
  5
185
100
AcDbEntity
  8
DEFPOINTS
390
0
  6
CONTINUOUS
 62
     0
100
AcDbPoint
 10
-80.0
 20
32.0
 30
0.0
  0
ENDBLK
  5
186
100
AcDbEntity
  8
0
370
    -2
390
0
  6
ByBlock
 62
     0
100
AcDbBlockEnd
  0
BLOCK
  5
189
100
AcDbEntity
  8
0
370
    -2
390
0
  6
ByBlock
 62
     0
100
AcDbBlockBegin
  2
*D14
 70
     1
 10
0.0
 20
0.0
 30
0.0
  3
*D14
  1

  0
LINE
  5
18A
100
AcDbEntity
  8
0
390
0
  6
CONTINUOUS
 62
   255
100
AcDbLine
 10
-80.0
 20
32.0
 30
0.0
 11
80.0
 21
32.0
 31
0.0
  0
LINE
  5
18B
100
AcDbEntity
  8
0
390
0
  6
CONTINUOUS
 62
   255
100
AcDbLine
 10
80.0
 20
11.65
 30
0.0
 11
80.0
 21
34.286
 31
0.0
  0
INSERT
  5
18C
100
AcDbEntity
  8
0
390
0
  6
CONTINUOUS
 62
   255
100
AcDbBlockReference
  2
_OPEN30
 10
-80.0
 20
32.0
 30
0.0
 41
2.77
 42
2.77
 43
2.77
 50
180.0
  0
INSERT
  5
18D
100
AcDbEntity
  8
0
390
0
  6
CONTINUOUS
 62
   255
100
AcDbBlockReference
  2
_OPEN30
 10
80.0
 20
32.0
 30
0.0
 41
2.77
 42
2.77
 43
2.77
  0
MTEXT
  5
18E
100
AcDbEntity
  8
0
390
0
  6
CONTINUOUS
 62
   255
100
AcDbMText
 10
0.0
 20
34.6
 30
0.0
 40
3.2
 41
0.0
 71
     5
 72
     1
  1
\A1;(160)
  7
MX_DIMTXSTY_3
 73
     1
 44
0.9
  0
POINT
  5
18F
100
AcDbEntity
  8
DEFPOINTS
390
0
  6
CONTINUOUS
 62
     0
100
AcDbPoint
 10
-80.0
 20
9.65
 30
0.0
  0
POINT
  5
190
100
AcDbEntity
  8
DEFPOINTS
390
0
  6
CONTINUOUS
 62
     0
100
AcDbPoint
 10
80.0
 20
9.65
 30
0.0
  0
POINT
  5
191
100
AcDbEntity
  8
DEFPOINTS
390
0
  6
CONTINUOUS
 62
     0
100
AcDbPoint
 10
80.0
 20
32.0
 30
0.0
  0
ENDBLK
  5
192
100
AcDbEntity
  8
0
370
    -2
390
0
  6
ByBlock
 62
     0
100
AcDbBlockEnd
  0
BLOCK
  5
195
100
AcDbEntity
  8
0
370
    -2
390
0
  6
ByBlock
 62
     0
100
AcDbBlockBegin
  2
*D15
 70
     1
 10
0.0
 20
0.0
 30
0.0
  3
*D15
  1

  0
LINE
  5
196
100
AcDbEntity
  8
0
390
0
  6
CONTINUOUS
 62
   255
100
AcDbLine
 10
100.0
 20
40.0
 30
0.0
 11
-100.0
 21
40.0
 31
0.0
  0
LINE
  5
197
100
AcDbEntity
  8
0
390
0
  6
CONTINUOUS
 62
   255
100
AcDbLine
 10
100.0
 20
17.0
 30
0.0
 11
100.0
 21
42.286
 31
0.0
  0
LINE
  5
198
100
AcDbEntity
  8
0
390
0
  6
CONTINUOUS
 62
   255
100
AcDbLine
 10
-100.0
 20
17.0
 30
0.0
 11
-100.0
 21
42.286
 31
0.0
  0
INSERT
  5
199
100
AcDbEntity
  8
0
390
0
  6
CONTINUOUS
 62
   255
100
AcDbBlockReference
  2
_OPEN30
 10
100.0
 20
40.0
 30
0.0
 41
2.77
 42
2.77
 43
2.77
  0
INSERT
  5
19A
100
AcDbEntity
  8
0
390
0
  6
CONTINUOUS
 62
   255
100
AcDbBlockReference
  2
_OPEN30
 10
-100.0
 20
40.0
 30
0.0
 41
2.77
 42
2.77
 43
2.77
 50
180.0
  0
MTEXT
  5
19B
100
AcDbEntity
  8
0
390
0
  6
CONTINUOUS
 62
   255
100
AcDbMText
 10
0.0
 20
42.6
 30
0.0
 40
3.2
 41
0.0
 71
     5
 72
     1
  1
\A1;200±5%
 11
1.0
 21
0.0
 31
0.0
 73
     1
 44
0.9
  0
POINT
  5
19C
100
AcDbEntity
  8
DEFPOINTS
390
0
  6
CONTINUOUS
 62
     0
100
AcDbPoint
 10
100.0
 20
15.0
 30
0.0
  0
POINT
  5
19D
100
AcDbEntity
  8
DEFPOINTS
390
0
  6
CONTINUOUS
 62
     0
100
AcDbPoint
 10
-100.0
 20
15.0
 30
0.0
  0
POINT
  5
19E
100
AcDbEntity
  8
DEFPOINTS
390
0
  6
CONTINUOUS
 62
     0
100
AcDbPoint
 10
-100.0
 20
40.0
 30
0.0
  0
ENDBLK
  5
19F
100
AcDbEntity
  8
0
370
    -2
390
0
  6
ByBlock
 62
     0
100
AcDbBlockEnd
  0
BLOCK
  5
1A2
100
AcDbEntity
  8
0
370
    -2
390
0
  6
ByBlock
 62
     0
100
AcDbBlockBegin
  2
*D16
 70
     1
 10
0.0
 20
0.0
 30
0.0
  3
*D16
  1

  0
LINE
  5
1A3
100
AcDbEntity
  8
0
390
0
  6
CONTINUOUS
 62
   110
100
AcDbLine
 10
-120.0
 20
15.0
 30
0.0
 11
-120.0
 21
-15.0
 31
0.0
  0
LINE
  5
1A4
100
AcDbEntity
  8
0
390
0
  6
CONTINUOUS
 62
   110
100
AcDbLine
 10
-102.0
 20
15.0
 30
0.0
 11
-122.286
 21
15.0
 31
0.0
  0
LINE
  5
1A5
100
AcDbEntity
  8
0
390
0
  6
CONTINUOUS
 62
   110
100
AcDbLine
 10
-102.0
 20
-15.0
 30
0.0
 11
-122.286
 21
-15.0
 31
0.0
  0
INSERT
  5
1A6
100
AcDbEntity
  8
0
390
0
  6
CONTINUOUS
 62
   110
100
AcDbBlockReference
  2
_OPEN30
 10
-120.0
 20
15.0
 30
0.0
 41
2.77
 42
2.77
 43
2.77
 50
90.0
  0
INSERT
  5
1A7
100
AcDbEntity
  8
0
390
0
  6
CONTINUOUS
 62
   110
100
AcDbBlockReference
  2
_OPEN30
 10
-120.0
 20
-15.0
 30
0.0
 41
2.77
 42
2.77
 43
2.77
 50
270.0
  0
MTEXT
  5
1A8
100
AcDbEntity
  8
0
390
0
  6
CONTINUOUS
 62
   110
100
AcDbMText
 10
-122.6
 20
0.0
 30
0.0
 40
3.2
 41
0.0
 71
     5
 72
     1
  1
\A1;\U+220530
 11
0.0
 21
1.0
 31
0.0
 73
     1
 44
0.9
  0
POINT
  5
1A9
100
AcDbEntity
  8
DEFPOINTS
390
0
  6
CONTINUOUS
 62
     0
100
AcDbPoint
 10
-100.0
 20
15.0
 30
0.0
  0
POINT
  5
1AA
100
AcDbEntity
  8
DEFPOINTS
390
0
  6
CONTINUOUS
 62
     0
100
AcDbPoint
 10
-100.0
 20
-15.0
 30
0.0
  0
POINT
  5
1AB
100
AcDbEntity
  8
DEFPOINTS
390
0
  6
CONTINUOUS
 62
     0
100
AcDbPoint
 10
-120.0
 20
-15.0
 30
0.0
  0
ENDBLK
  5
1AC
100
AcDbEntity
  8
0
370
    -2
390
0
  6
ByBlock
 62
     0
100
AcDbBlockEnd
  0
BLOCK
  5
1AF
100
AcDbEntity
  8
0
370
    -2
390
0
  6
ByBlock
 62
     0
100
AcDbBlockBegin
  2
*D17
 70
     1
 10
0.0
 20
0.0
 30
0.0
  3
*D17
  1

  0
LINE
  5
1B0
100
AcDbEntity
  8
0
390
0
  6
CONTINUOUS
 62
   110
100
AcDbLine
 10
80.0
 20
32.0
 30
0.0
 11
100.0
 21
32.0
 31
0.0
  0
INSERT
  5
1B1
100
AcDbEntity
  8
0
390
0
  6
CONTINUOUS
 62
   110
100
AcDbBlockReference
  2
_OPEN30
 10
80.0
 20
32.0
 30
0.0
 41
2.77
 42
2.77
 43
2.77
 50
180.0
  0
INSERT
  5
1B2
100
AcDbEntity
  8
0
390
0
  6
CONTINUOUS
 62
   110
100
AcDbBlockReference
  2
_OPEN30
 10
100.0
 20
32.0
 30
0.0
 41
2.77
 42
2.77
 43
2.77
  0
MTEXT
  5
1B3
100
AcDbEntity
  8
0
390
0
  6
CONTINUOUS
 62
   110
100
AcDbMText
 10
90.0
 20
34.6
 30
0.0
 40
3.2
 41
0.0
 71
     5
 72
     1
  1
\A1;20
  7
MX_DIMTXSTY_2
 73
     1
 44
0.9
  0
POINT
  5
1B4
100
AcDbEntity
  8
DEFPOINTS
390
0
  6
CONTINUOUS
 62
     0
100
AcDbPoint
 10
80.0
 20
9.65
 30
0.0
  0
POINT
  5
1B5
100
AcDbEntity
  8
DEFPOINTS
390
0
  6
CONTINUOUS
 62
     0
100
AcDbPoint
 10
100.0
 20
15.0
 30
0.0
  0
POINT
  5
1B6
100
AcDbEntity
  8
DEFPOINTS
390
0
  6
CONTINUOUS
 62
     0
100
AcDbPoint
 10
100.0
 20
32.0
 30
0.0
  0
ENDBLK
  5
1B7
100
AcDbEntity
  8
0
370
    -2
390
0
  6
ByBlock
 62
     0
100
AcDbBlockEnd
  0
BLOCK
  5
1BA
100
AcDbEntity
  8
0
370
    -2
390
0
  6
ByBlock
 62
     0
100
AcDbBlockBegin
  2
*D18
 70
     1
 10
0.0
 20
0.0
 30
0.0
  3
*D18
  1

  0
LINE
  5
1BB
100
AcDbEntity
  8
0
390
0
  6
CONTINUOUS
 62
   110
100
AcDbLine
 10
-16.0
 20
-9.25
 30
0.0
 11
-16.0
 21
9.25
 31
0.0
  0
LINE
  5
1BC
100
AcDbEntity
  8
0
390
0
  6
CONTINUOUS
 62
   110
100
AcDbLine
 10
-16.0
 20
9.25
 30
0.0
 11
-16.0
 21
27.200001
 31
0.0
  0
INSERT
  5
1BD
100
AcDbEntity
  8
0
390
0
  6
CONTINUOUS
 62
   110
100
AcDbBlockReference
  2
_OPEN30
 10
-16.0
 20
-9.25
 30
0.0
 41
2.77
 42
2.77
 43
2.77
 50
270.0
  0
INSERT
  5
1BE
100
AcDbEntity
  8
0
390
0
  6
CONTINUOUS
 62
   110
100
AcDbBlockReference
  2
_OPEN30
 10
-16.0
 20
9.25
 30
0.0
 41
2.77
 42
2.77
 43
2.77
 50
90.0
  0
MTEXT
  5
1C0
100
AcDbEntity
  8
0
390
0
  6
CONTINUOUS
 62
   110
100
AcDbMText
 10
-18.6
 20
19.200001
 30
0.0
 40
3.2
 41
0.0
 71
     5
 72
     1
  1
\A1;\U+220518.5
  7
MX_DIMTXSTY_6
 11
0.0
 21
1.0
 31
0.0
 73
     1
 44
0.9
  0
POINT
  5
1C1
100
AcDbEntity
  8
DEFPOINTS
390
0
  6
CONTINUOUS
 62
     0
100
AcDbPoint
 10
-3.154164
 20
-9.25
 30
0.0
  0
POINT
  5
1C2
100
AcDbEntity
  8
DEFPOINTS
390
0
  6
CONTINUOUS
 62
     0
100
AcDbPoint
 10
0.107885
 20
9.25
 30
0.0
  0
POINT
  5
1C3
100
AcDbEntity
  8
DEFPOINTS
390
0
  6
CONTINUOUS
 62
     0
100
AcDbPoint
 10
-16.0
 20
9.25
 30
0.0
  0
ENDBLK
  5
1C4
100
AcDbEntity
  8
0
370
    -2
390
0
  6
ByBlock
 62
     0
100
AcDbBlockEnd
  0
BLOCK
  5
1C7
100
AcDbEntity
  8
0
370
    -2
390
0
  6
ByBlock
 62
     0
100
AcDbBlockBegin
  2
*D19
 70
     1
 10
0.0
 20
0.0
 30
0.0
  3
*D19
  1

  0
LINE
  5
1C8
100
AcDbEntity
  8
0
390
0
  6
CONTINUOUS
 62
   110
100
AcDbLine
 10
-24.0
 20
-6.5
 30
0.0
 11
-24.0
 21
6.5
 31
0.0
  0
LINE
  5
1C9
100
AcDbEntity
  8
0
390
0
  6
CONTINUOUS
 62
   110
100
AcDbLine
 10
-24.0
 20
6.5
 30
0.0
 11
-24.0
 21
20.8
 31
0.0
  0
INSERT
  5
1CA
100
AcDbEntity
  8
0
390
0
  6
CONTINUOUS
 62
   110
100
AcDbBlockReference
  2
_OPEN30
 10
-24.0
 20
-6.5
 30
0.0
 41
2.77
 42
2.77
 43
2.77
 50
270.0
  0
INSERT
  5
1CB
100
AcDbEntity
  8
0
390
0
  6
CONTINUOUS
 62
   110
100
AcDbBlockReference
  2
_OPEN30
 10
-24.0
 20
6.5
 30
0.0
 41
2.77
 42
2.77
 43
2.77
 50
90.0
  0
MTEXT
  5
1CC
100
AcDbEntity
  8
0
390
0
  6
CONTINUOUS
 62
   110
100
AcDbMText
 10
-26.6
 20
16.0
 30
0.0
 40
3.2
 41
0.0
 71
     5
 72
     1
  1
\A1;\U+220513
  7
MX_DIMTXSTY_4
 11
0.0
 21
1.0
 31
0.0
 73
     1
 44
0.9
  0
POINT
  5
1CD
100
AcDbEntity
  8
DEFPOINTS
390
0
  6
CONTINUOUS
 62
     0
100
AcDbPoint
 10
-2.669266
 20
-6.5
 30
0.0
  0
POINT
  5
1CE
100
AcDbEntity
  8
DEFPOINTS
390
0
  6
CONTINUOUS
 62
     0
100
AcDbPoint
 10
-0.377014
 20
6.5
 30
0.0
  0
POINT
  5
1CF
100
AcDbEntity
  8
DEFPOINTS
390
0
  6
CONTINUOUS
 62
     0
100
AcDbPoint
 10
-24.0
 20
6.5
 30
0.0
  0
ENDBLK
  5
1D0
100
AcDbEntity
  8
0
370
    -2
390
0
  6
ByBlock
 62
     0
100
AcDbBlockEnd
  0
BLOCK
  5
23A
100
AcDbEntity
  8
0
370
    -2
390
0
  6
ByBlock
 62
     0
100
AcDbBlockBegin
  2
*D20
 70
     1
 10
0.0
 20
0.0
 30
0.0
  3
*D20
  1

  0
LINE
  5
23B
100
AcDbEntity
  8
0
390
0
  6
CONTINUOUS
 62
   110
100
AcDbLine
 10
-100.0
 20
40.0
 30
0.0
 11
-80.0
 21
40.0
 31
0.0
  0
LINE
  5
23C
100
AcDbEntity
  8
0
390
0
  6
CONTINUOUS
 62
   110
100
AcDbLine
 10
-80.0
 20
20.25
 30
0.0
 11
-80.0
 21
42.286
 31
0.0
  0
INSERT
  5
23D
100
AcDbEntity
  8
0
390
0
  6
CONTINUOUS
 62
   110
100
AcDbBlockReference
  2
_OPEN30
 10
-100.0
 20
40.0
 30
0.0
 41
2.77
 42
2.77
 43
2.77
 50
180.0
  0
INSERT
  5
23E
100
AcDbEntity
  8
0
390
0
  6
CONTINUOUS
 62
   110
100
AcDbBlockReference
  2
_OPEN30
 10
-80.0
 20
40.0
 30
0.0
 41
2.77
 42
2.77
 43
2.77
  0
MTEXT
  5
23F
100
AcDbEntity
  8
0
390
0
  6
CONTINUOUS
 62
   110
100
AcDbMText
 10
-90.0
 20
42.6
 30
0.0
 40
3.2
 41
0.0
 71
     5
 72
     1
  1
\A1;20
  7
MX_DIMTXSTY_2
 73
     1
 44
0.9
  0
POINT
  5
240
100
AcDbEntity
  8
DEFPOINTS
390
0
  6
CONTINUOUS
 62
     0
100
AcDbPoint
 10
-100.0
 20
20.0
 30
0.0
  0
POINT
  5
241
100
AcDbEntity
  8
DEFPOINTS
390
0
  6
CONTINUOUS
 62
     0
100
AcDbPoint
 10
-80.0
 20
18.25
 30
0.0
  0
POINT
  5
242
100
AcDbEntity
  8
DEFPOINTS
390
0
  6
CONTINUOUS
 62
     0
100
AcDbPoint
 10
-80.0
 20
40.0
 30
0.0
  0
ENDBLK
  5
243
100
AcDbEntity
  8
0
370
    -2
390
0
  6
ByBlock
 62
     0
100
AcDbBlockEnd
  0
BLOCK
  5
246
100
AcDbEntity
  8
0
370
    -2
390
0
  6
ByBlock
 62
     0
100
AcDbBlockBegin
  2
*D21
 70
     1
 10
0.0
 20
0.0
 30
0.0
  3
*D21
  1

  0
LINE
  5
247
100
AcDbEntity
  8
0
390
0
  6
CONTINUOUS
 62
   255
100
AcDbLine
 10
-80.0
 20
40.0
 30
0.0
 11
80.0
 21
40.0
 31
0.0
  0
LINE
  5
248
100
AcDbEntity
  8
0
390
0
  6
CONTINUOUS
 62
   255
100
AcDbLine
 10
80.0
 20
20.25
 30
0.0
 11
80.0
 21
42.286
 31
0.0
  0
INSERT
  5
249
100
AcDbEntity
  8
0
390
0
  6
CONTINUOUS
 62
   255
100
AcDbBlockReference
  2
_OPEN30
 10
-80.0
 20
40.0
 30
0.0
 41
2.77
 42
2.77
 43
2.77
 50
180.0
  0
INSERT
  5
24A
100
AcDbEntity
  8
0
390
0
  6
CONTINUOUS
 62
   255
100
AcDbBlockReference
  2
_OPEN30
 10
80.0
 20
40.0
 30
0.0
 41
2.77
 42
2.77
 43
2.77
  0
MTEXT
  5
24B
100
AcDbEntity
  8
0
390
0
  6
CONTINUOUS
 62
   255
100
AcDbMText
 10
0.0
 20
42.6
 30
0.0
 40
3.2
 41
0.0
 71
     5
 72
     1
  1
\A1;(160)
  7
MX_DIMTXSTY_3
 73
     1
 44
0.9
  0
POINT
  5
24C
100
AcDbEntity
  8
DEFPOINTS
390
0
  6
CONTINUOUS
 62
     0
100
AcDbPoint
 10
-80.0
 20
18.25
 30
0.0
  0
POINT
  5
24D
100
AcDbEntity
  8
DEFPOINTS
390
0
  6
CONTINUOUS
 62
     0
100
AcDbPoint
 10
80.0
 20
18.25
 30
0.0
  0
POINT
  5
24E
100
AcDbEntity
  8
DEFPOINTS
390
0
  6
CONTINUOUS
 62
     0
100
AcDbPoint
 10
80.0
 20
40.0
 30
0.0
  0
ENDBLK
  5
24F
100
AcDbEntity
  8
0
370
    -2
390
0
  6
ByBlock
 62
     0
100
AcDbBlockEnd
  0
BLOCK
  5
252
100
AcDbEntity
  8
0
370
    -2
390
0
  6
ByBlock
 62
     0
100
AcDbBlockBegin
  2
*D22
 70
     1
 10
0.0
 20
0.0
 30
0.0
  3
*D22
  1

  0
LINE
  5
253
100
AcDbEntity
  8
0
390
0
  6
CONTINUOUS
 62
   255
100
AcDbLine
 10
100.0
 20
48.0
 30
0.0
 11
-100.0
 21
48.0
 31
0.0
  0
LINE
  5
254
100
AcDbEntity
  8
0
390
0
  6
CONTINUOUS
 62
   255
100
AcDbLine
 10
100.0
 20
22.0
 30
0.0
 11
100.0
 21
50.286
 31
0.0
  0
LINE
  5
255
100
AcDbEntity
  8
0
390
0
  6
CONTINUOUS
 62
   255
100
AcDbLine
 10
-100.0
 20
22.0
 30
0.0
 11
-100.0
 21
50.286
 31
0.0
  0
INSERT
  5
256
100
AcDbEntity
  8
0
390
0
  6
CONTINUOUS
 62
   255
100
AcDbBlockReference
  2
_OPEN30
 10
100.0
 20
48.0
 30
0.0
 41
2.77
 42
2.77
 43
2.77
  0
INSERT
  5
257
100
AcDbEntity
  8
0
390
0
  6
CONTINUOUS
 62
   255
100
AcDbBlockReference
  2
_OPEN30
 10
-100.0
 20
48.0
 30
0.0
 41
2.77
 42
2.77
 43
2.77
 50
180.0
  0
MTEXT
  5
258
100
AcDbEntity
  8
0
390
0
  6
CONTINUOUS
 62
   255
100
AcDbMText
 10
0.0
 20
50.6
 30
0.0
 40
3.2
 41
0.0
 71
     5
 72
     1
  1
\A1;200±5%
 11
1.0
 21
0.0
 31
0.0
 73
     1
 44
0.9
  0
POINT
  5
259
100
AcDbEntity
  8
DEFPOINTS
390
0
  6
CONTINUOUS
 62
     0
100
AcDbPoint
 10
100.0
 20
20.0
 30
0.0
  0
POINT
  5
25A
100
AcDbEntity
  8
DEFPOINTS
390
0
  6
CONTINUOUS
 62
     0
100
AcDbPoint
 10
-100.0
 20
20.0
 30
0.0
  0
POINT
  5
25B
100
AcDbEntity
  8
DEFPOINTS
390
0
  6
CONTINUOUS
 62
     0
100
AcDbPoint
 10
-100.0
 20
48.0
 30
0.0
  0
ENDBLK
  5
25C
100
AcDbEntity
  8
0
370
    -2
390
0
  6
ByBlock
 62
     0
100
AcDbBlockEnd
  0
BLOCK
  5
25F
100
AcDbEntity
  8
0
370
    -2
390
0
  6
ByBlock
 62
     0
100
AcDbBlockBegin
  2
*D23
 70
     1
 10
0.0
 20
0.0
 30
0.0
  3
*D23
  1

  0
LINE
  5
260
100
AcDbEntity
  8
0
390
0
  6
CONTINUOUS
 62
   110
100
AcDbLine
 10
-120.0
 20
20.0
 30
0.0
 11
-120.0
 21
-20.0
 31
0.0
  0
LINE
  5
261
100
AcDbEntity
  8
0
390
0
  6
CONTINUOUS
 62
   110
100
AcDbLine
 10
-102.0
 20
20.0
 30
0.0
 11
-122.286
 21
20.0
 31
0.0
  0
LINE
  5
262
100
AcDbEntity
  8
0
390
0
  6
CONTINUOUS
 62
   110
100
AcDbLine
 10
-102.0
 20
-20.0
 30
0.0
 11
-122.286
 21
-20.0
 31
0.0
  0
INSERT
  5
263
100
AcDbEntity
  8
0
390
0
  6
CONTINUOUS
 62
   110
100
AcDbBlockReference
  2
_OPEN30
 10
-120.0
 20
20.0
 30
0.0
 41
2.77
 42
2.77
 43
2.77
 50
90.0
  0
INSERT
  5
264
100
AcDbEntity
  8
0
390
0
  6
CONTINUOUS
 62
   110
100
AcDbBlockReference
  2
_OPEN30
 10
-120.0
 20
-20.0
 30
0.0
 41
2.77
 42
2.77
 43
2.77
 50
270.0
  0
MTEXT
  5
265
100
AcDbEntity
  8
0
390
0
  6
CONTINUOUS
 62
   110
100
AcDbMText
 10
-122.6
 20
0.0
 30
0.0
 40
3.2
 41
0.0
 71
     5
 72
     1
  1
\A1;\U+220540
 11
0.0
 21
1.0
 31
0.0
 73
     1
 44
0.9
  0
POINT
  5
266
100
AcDbEntity
  8
DEFPOINTS
390
0
  6
CONTINUOUS
 62
     0
100
AcDbPoint
 10
-100.0
 20
20.0
 30
0.0
  0
POINT
  5
267
100
AcDbEntity
  8
DEFPOINTS
390
0
  6
CONTINUOUS
 62
     0
100
AcDbPoint
 10
-100.0
 20
-20.0
 30
0.0
  0
POINT
  5
268
100
AcDbEntity
  8
DEFPOINTS
390
0
  6
CONTINUOUS
 62
     0
100
AcDbPoint
 10
-120.0
 20
-20.0
 30
0.0
  0
ENDBLK
  5
269
100
AcDbEntity
  8
0
370
    -2
390
0
  6
ByBlock
 62
     0
100
AcDbBlockEnd
  0
BLOCK
  5
26C
100
AcDbEntity
  8
0
370
    -2
390
0
  6
ByBlock
 62
     0
100
AcDbBlockBegin
  2
*D24
 70
     1
 10
0.0
 20
0.0
 30
0.0
  3
*D24
  1

  0
LINE
  5
26D
100
AcDbEntity
  8
0
390
0
  6
CONTINUOUS
 62
   110
100
AcDbLine
 10
80.0
 20
40.0
 30
0.0
 11
100.0
 21
40.0
 31
0.0
  0
INSERT
  5
26E
100
AcDbEntity
  8
0
390
0
  6
CONTINUOUS
 62
   110
100
AcDbBlockReference
  2
_OPEN30
 10
80.0
 20
40.0
 30
0.0
 41
2.77
 42
2.77
 43
2.77
 50
180.0
  0
INSERT
  5
26F
100
AcDbEntity
  8
0
390
0
  6
CONTINUOUS
 62
   110
100
AcDbBlockReference
  2
_OPEN30
 10
100.0
 20
40.0
 30
0.0
 41
2.77
 42
2.77
 43
2.77
  0
MTEXT
  5
270
100
AcDbEntity
  8
0
390
0
  6
CONTINUOUS
 62
   110
100
AcDbMText
 10
90.0
 20
42.6
 30
0.0
 40
3.2
 41
0.0
 71
     5
 72
     1
  1
\A1;20
  7
MX_DIMTXSTY_2
 73
     1
 44
0.9
  0
POINT
  5
271
100
AcDbEntity
  8
DEFPOINTS
390
0
  6
CONTINUOUS
 62
     0
100
AcDbPoint
 10
80.0
 20
18.25
 30
0.0
  0
POINT
  5
272
100
AcDbEntity
  8
DEFPOINTS
390
0
  6
CONTINUOUS
 62
     0
100
AcDbPoint
 10
100.0
 20
20.0
 30
0.0
  0
POINT
  5
273
100
AcDbEntity
  8
DEFPOINTS
390
0
  6
CONTINUOUS
 62
     0
100
AcDbPoint
 10
100.0
 20
40.0
 30
0.0
  0
ENDBLK
  5
274
100
AcDbEntity
  8
0
370
    -2
390
0
  6
ByBlock
 62
     0
100
AcDbBlockEnd
  0
BLOCK
  5
277
100
AcDbEntity
  8
0
370
    -2
390
0
  6
ByBlock
 62
     0
100
AcDbBlockBegin
  2
*D25
 70
     1
 10
0.0
 20
0.0
 30
0.0
  3
*D25
  1

  0
LINE
  5
278
100
AcDbEntity
  8
0
390
0
  6
CONTINUOUS
 62
   110
100
AcDbLine
 10
-24.0
 20
-12.75
 30
0.0
 11
-24.0
 21
12.75
 31
0.0
  0
LINE
  5
279
100
AcDbEntity
  8
0
390
0
  6
CONTINUOUS
 62
   110
100
AcDbLine
 10
-24.0
 20
12.75
 30
0.0
 11
-24.0
 21
35.200001
 31
0.0
  0
INSERT
  5
27A
100
AcDbEntity
  8
0
390
0
  6
CONTINUOUS
 62
   110
100
AcDbBlockReference
  2
_OPEN30
 10
-24.0
 20
-12.75
 30
0.0
 41
2.77
 42
2.77
 43
2.77
 50
270.0
  0
INSERT
  5
27B
100
AcDbEntity
  8
0
390
0
  6
CONTINUOUS
 62
   110
100
AcDbBlockReference
  2
_OPEN30
 10
-24.0
 20
12.75
 30
0.0
 41
2.77
 42
2.77
 43
2.77
 50
90.0
  0
MTEXT
  5
27C
100
AcDbEntity
  8
0
390
0
  6
CONTINUOUS
 62
   110
100
AcDbMText
 10
-26.6
 20
27.200001
 30
0.0
 40
3.2
 41
0.0
 71
     5
 72
     1
  1
\A1;\U+220525.5
  7
MX_DIMTXSTY_2
 11
0.0
 21
1.0
 31
0.0
 73
     1
 44
0.9
  0
POINT
  5
27D
100
AcDbEntity
  8
DEFPOINTS
390
0
  6
CONTINUOUS
 62
     0
100
AcDbPoint
 10
-69.875
 20
-12.75
 30
0.0
  0
POINT
  5
27E
100
AcDbEntity
  8
DEFPOINTS
390
0
  6
CONTINUOUS
 62
     0
100
AcDbPoint
 10
-69.875
 20
12.75
 30
0.0
  0
POINT
  5
27F
100
AcDbEntity
  8
DEFPOINTS
390
0
  6
CONTINUOUS
 62
     0
100
AcDbPoint
 10
-24.0
 20
12.75
 30
0.0
  0
ENDBLK
  5
280
100
AcDbEntity
  8
0
370
    -2
390
0
  6
ByBlock
 62
     0
100
AcDbBlockEnd
  0
BLOCK
  5
283
100
AcDbEntity
  8
0
370
    -2
390
0
  6
ByBlock
 62
     0
100
AcDbBlockBegin
  2
*D26
 70
     1
 10
0.0
 20
0.0
 30
0.0
  3
*D26
  1

  0
LINE
  5
284
100
AcDbEntity
  8
0
390
0
  6
CONTINUOUS
 62
   110
100
AcDbLine
 10
-16.0
 20
-17.0
 30
0.0
 11
-16.0
 21
17.0
 31
0.0
  0
LINE
  5
285
100
AcDbEntity
  8
0
390
0
  6
CONTINUOUS
 62
   110
100
AcDbLine
 10
-16.0
 20
17.0
 30
0.0
 11
-16.0
 21
28.8
 31
0.0
  0
INSERT
  5
286
100
AcDbEntity
  8
0
390
0
  6
CONTINUOUS
 62
   110
100
AcDbBlockReference
  2
_OPEN30
 10
-16.0
 20
-17.0
 30
0.0
 41
2.77
 42
2.77
 43
2.77
 50
270.0
  0
INSERT
  5
287
100
AcDbEntity
  8
0
390
0
  6
CONTINUOUS
 62
   110
100
AcDbBlockReference
  2
_OPEN30
 10
-16.0
 20
17.0
 30
0.0
 41
2.77
 42
2.77
 43
2.77
 50
90.0
  0
MTEXT
  5
289
100
AcDbEntity
  8
0
390
0
  6
CONTINUOUS
 62
   110
100
AcDbMText
 10
-18.6
 20
24.0
 30
0.0
 40
3.2
 41
0.0
 71
     5
 72
     1
  1
\A1;\U+220534
  7
MX_DIMTXSTY_7
 11
0.0
 21
1.0
 31
0.0
 73
     1
 44
0.9
  0
POINT
  5
28A
100
AcDbEntity
  8
DEFPOINTS
390
0
  6
CONTINUOUS
 62
     0
100
AcDbPoint
 10
-67.625
 20
-17.0
 30
0.0
  0
POINT
  5
28B
100
AcDbEntity
  8
DEFPOINTS
390
0
  6
CONTINUOUS
 62
     0
100
AcDbPoint
 10
-67.625
 20
17.0
 30
0.0
  0
POINT
  5
28C
100
AcDbEntity
  8
DEFPOINTS
390
0
  6
CONTINUOUS
 62
     0
100
AcDbPoint
 10
-16.0
 20
17.0
 30
0.0
  0
ENDBLK
  5
28D
100
AcDbEntity
  8
0
370
    -2
390
0
  6
ByBlock
 62
     0
100
AcDbBlockEnd
  0
ENDSEC
  0
SECTION
  2
ENTITIES
  0
ARC
  5
2F1
100
AcDbEntity
  8
PV
390
0
  6
CONTINUOUS
 62
     3
100
AcDbCircle
 10
67.625
 20
14.975
 30
0.0
 40
1.125
100
AcDbArc
 50
360.0
 51
180.0
  0
ARC
  5
2F2
100
AcDbEntity
  8
PV
390
0
  6
CONTINUOUS
 62
     3
100
AcDbCircle
 10
69.875
 20
13.625
 30
0.0
 40
1.125
100
AcDbArc
 50
180.0
 51
0.0
  0
ARC
  5
2F3
100
AcDbEntity
  8
PV
390
0
  6
CONTINUOUS
 62
     3
100
AcDbCircle
 10
72.125
 20
14.975
 30
0.0
 40
1.125
100
AcDbArc
 50
360.0
 51
180.0
  0
ARC
  5
2F4
100
AcDbEntity
  8
PV
390
0
  6
CONTINUOUS
 62
     3
100
AcDbCircle
 10
74.375
 20
13.625
 30
0.0
 40
1.125
100
AcDbArc
 50
180.0
 51
0.0
  0
LINE
  5
2F5
100
AcDbEntity
  8
PV
390
0
  6
CONTINUOUS
 62
     3
100
AcDbLine
 10
66.5
 20
14.975
 30
0.0
 11
66.5
 21
13.625
 31
0.0
  0
LINE
  5
2F6
100
AcDbEntity
  8
PV
390
0
  6
CONTINUOUS
 62
     3
100
AcDbLine
 10
68.75
 20
14.975
 30
0.0
 11
68.75
 21
13.625
 31
0.0
  0
LINE
  5
2F7
100
AcDbEntity
  8
PV
390
0
  6
CONTINUOUS
 62
     3
100
AcDbLine
 10
71.0
 20
14.975
 30
0.0
 11
71.0
 21
13.625
 31
0.0
  0
LINE
  5
2F8
100
AcDbEntity
  8
PV
390
0
  6
CONTINUOUS
 62
     3
100
AcDbLine
 10
73.25
 20
14.975
 30
0.0
 11
73.25
 21
13.625
 31
0.0
  0
LINE
  5
2F9
100
AcDbEntity
  8
PV
390
0
  6
CONTINUOUS
 62
     3
100
AcDbLine
 10
75.5
 20
14.975
 30
0.0
 11
75.5
 21
13.625
 31
0.0
  0
LINE
  5
2FA
100
AcDbEntity
  8
PV
390
0
  6
CONTINUOUS
 62
     3
100
AcDbLine
 10
77.75
 20
14.975
 30
0.0
 11
77.75
 21
13.625
 31
0.0
  0
LINE
  5
2FB
100
AcDbEntity
  8
PV
390
0
  6
PHANTOM
 62
   110
100
AcDbLine
 10
69.875
 20
12.5
 30
0.0
 11
3.727227
 21
12.5
 31
0.0
  0
LINE
  5
2FC
100
AcDbEntity
  8
PV
390
0
  6
PHANTOM
 62
   110
100
AcDbLine
 10
67.625
 20
16.1
 30
0.0
 11
4.362004
 21
16.1
 31
0.0
  0
ARC
  5
2FD
100
AcDbEntity
  8
PV
390
0
  6
CONTINUOUS
 62
     3
100
AcDbCircle
 10
78.875
 20
13.625
 30
0.0
 40
1.125
100
AcDbArc
 50
180.0
 51
0.0
  0
LINE
  5
2FE
100
AcDbEntity
  8
PV
390
0
  6
CONTINUOUS
 62
     3
100
AcDbLine
 10
80.5
 20
16.5
 30
0.0
 11
80.0
 21
16.5
 31
0.0
  0
LINE
  5
2FF
100
AcDbEntity
  8
PV
390
0
  6
CONTINUOUS
 62
     3
100
AcDbLine
 10
80.5
 20
16.5
 30
0.0
 11
82.174316
 21
13.6
 31
0.0
  0
ARC
  5
300
100
AcDbEntity
  8
PV
390
0
  6
CONTINUOUS
 62
     3
100
AcDbCircle
 10
76.625
 20
14.975
 30
0.0
 40
1.125
100
AcDbArc
 50
360.0
 51
180.0
  0
LINE
  5
301
100
AcDbEntity
  8
PV
390
0
  6
CONTINUOUS
 62
     3
100
AcDbLine
 10
80.5
 20
-16.5
 30
0.0
 11
80.0
 21
-16.5
 31
0.0
  0
LINE
  5
302
100
AcDbEntity
  8
PV
390
0
  6
CONTINUOUS
 62
     3
100
AcDbLine
 10
80.0
 20
16.5
 30
0.0
 11
80.0
 21
-16.5
 31
0.0
  0
LINE
  5
303
100
AcDbEntity
  8
PV
390
0
  6
CONTINUOUS
 62
     3
100
AcDbLine
 10
80.5
 20
-16.5
 30
0.0
 11
82.174316
 21
-13.6
 31
0.0
  0
LINE
  5
304
100
AcDbEntity
  8
PV
390
0
  6
CONTINUOUS
 62
     3
100
AcDbLine
 10
77.75
 20
-14.975
 30
0.0
 11
77.75
 21
-13.625
 31
0.0
  0
LINE
  5
305
100
AcDbEntity
  8
PV
390
0
  6
CONTINUOUS
 62
     3
100
AcDbLine
 10
75.5
 20
-14.975
 30
0.0
 11
75.5
 21
-13.625
 31
0.0
  0
LINE
  5
306
100
AcDbEntity
  8
PV
390
0
  6
CONTINUOUS
 62
     3
100
AcDbLine
 10
73.25
 20
-14.975
 30
0.0
 11
73.25
 21
-13.625
 31
0.0
  0
LINE
  5
307
100
AcDbEntity
  8
PV
390
0
  6
CONTINUOUS
 62
     3
100
AcDbLine
 10
71.0
 20
-14.975
 30
0.0
 11
71.0
 21
-13.625
 31
0.0
  0
LINE
  5
308
100
AcDbEntity
  8
PV
390
0
  6
CONTINUOUS
 62
     3
100
AcDbLine
 10
68.75
 20
-14.975
 30
0.0
 11
68.75
 21
-13.625
 31
0.0
  0
LINE
  5
309
100
AcDbEntity
  8
PV
390
0
  6
CONTINUOUS
 62
     3
100
AcDbLine
 10
66.5
 20
-14.975
 30
0.0
 11
66.5
 21
-13.625
 31
0.0
  0
ARC
  5
30A
100
AcDbEntity
  8
PV
390
0
  6
CONTINUOUS
 62
     3
100
AcDbCircle
 10
76.625
 20
-14.975
 30
0.0
 40
1.125
100
AcDbArc
 50
180.0
 51
0.0
  0
ARC
  5
30B
100
AcDbEntity
  8
PV
390
0
  6
CONTINUOUS
 62
     3
100
AcDbCircle
 10
74.375
 20
-13.625
 30
0.0
 40
1.125
100
AcDbArc
 50
360.0
 51
180.0
  0
ARC
  5
30C
100
AcDbEntity
  8
PV
390
0
  6
CONTINUOUS
 62
     3
100
AcDbCircle
 10
72.125
 20
-14.975
 30
0.0
 40
1.125
100
AcDbArc
 50
180.0
 51
0.0
  0
ARC
  5
30D
100
AcDbEntity
  8
PV
390
0
  6
CONTINUOUS
 62
     3
100
AcDbCircle
 10
69.875
 20
-13.625
 30
0.0
 40
1.125
100
AcDbArc
 50
360.0
 51
180.0
  0
ARC
  5
30E
100
AcDbEntity
  8
PV
390
0
  6
CONTINUOUS
 62
     3
100
AcDbCircle
 10
67.625
 20
-14.975
 30
0.0
 40
1.125
100
AcDbArc
 50
180.0
 51
0.0
  0
LINE
  5
30F
100
AcDbEntity
  8
PV
390
0
  6
PHANTOM
 62
   110
100
AcDbLine
 10
69.875
 20
-12.5
 30
0.0
 11
-0.680947
 21
-12.5
 31
0.0
  0
LINE
  5
310
100
AcDbEntity
  8
PV
390
0
  6
PHANTOM
 62
   110
100
AcDbLine
 10
67.625
 20
-16.1
 30
0.0
 11
-1.315724
 21
-16.1
 31
0.0
  0
ARC
  5
311
100
AcDbEntity
  8
PV
390
0
  6
CONTINUOUS
 62
     3
100
AcDbCircle
 10
78.875
 20
-13.625
 30
0.0
 40
1.125
100
AcDbArc
 50
360.0
 51
180.0
  0
ARC
  5
312
100
AcDbEntity
  8
PV
390
0
  6
CONTINUOUS
 62
     3
100
AcDbCircle
 10
-67.625
 20
-14.975
 30
0.0
 40
1.125
100
AcDbArc
 50
180.0
 51
0.0
  0
ARC
  5
313
100
AcDbEntity
  8
PV
390
0
  6
CONTINUOUS
 62
     3
100
AcDbCircle
 10
-69.875
 20
-13.625
 30
0.0
 40
1.125
100
AcDbArc
 50
0.0
 51
180.0
  0
ARC
  5
314
100
AcDbEntity
  8
PV
390
0
  6
CONTINUOUS
 62
     3
100
AcDbCircle
 10
-72.125
 20
-14.975
 30
0.0
 40
1.125
100
AcDbArc
 50
180.0
 51
0.0
  0
ARC
  5
315
100
AcDbEntity
  8
PV
390
0
  6
CONTINUOUS
 62
     3
100
AcDbCircle
 10
-74.375
 20
-13.625
 30
0.0
 40
1.125
100
AcDbArc
 50
0.0
 51
180.0
  0
ARC
  5
316
100
AcDbEntity
  8
PV
390
0
  6
CONTINUOUS
 62
     3
100
AcDbCircle
 10
-76.625
 20
-14.975
 30
0.0
 40
1.125
100
AcDbArc
 50
180.0
 51
0.0
  0
LINE
  5
317
100
AcDbEntity
  8
PV
390
0
  6
CONTINUOUS
 62
     3
100
AcDbLine
 10
-66.5
 20
-14.975
 30
0.0
 11
-66.5
 21
-13.625
 31
0.0
  0
LINE
  5
318
100
AcDbEntity
  8
PV
390
0
  6
CONTINUOUS
 62
     3
100
AcDbLine
 10
-68.75
 20
-14.975
 30
0.0
 11
-68.75
 21
-13.625
 31
0.0
  0
LINE
  5
319
100
AcDbEntity
  8
PV
390
0
  6
CONTINUOUS
 62
     3
100
AcDbLine
 10
-71.0
 20
-14.975
 30
0.0
 11
-71.0
 21
-13.625
 31
0.0
  0
LINE
  5
31A
100
AcDbEntity
  8
PV
390
0
  6
CONTINUOUS
 62
     3
100
AcDbLine
 10
-73.25
 20
-14.975
 30
0.0
 11
-73.25
 21
-13.625
 31
0.0
  0
LINE
  5
31B
100
AcDbEntity
  8
PV
390
0
  6
CONTINUOUS
 62
     3
100
AcDbLine
 10
-75.5
 20
-14.975
 30
0.0
 11
-75.5
 21
-13.625
 31
0.0
  0
LINE
  5
31C
100
AcDbEntity
  8
PV
390
0
  6
CONTINUOUS
 62
     3
100
AcDbLine
 10
-77.75
 20
-14.975
 30
0.0
 11
-77.75
 21
-13.625
 31
0.0
  0
LINE
  5
31D
100
AcDbEntity
  8
PV
390
0
  6
PHANTOM
 62
   110
100
AcDbLine
 10
-69.875
 20
-12.5
 30
0.0
 11
-3.727227
 21
-12.5
 31
0.0
  0
LINE
  5
31E
100
AcDbEntity
  8
PV
390
0
  6
PHANTOM
 62
   110
100
AcDbLine
 10
-67.625
 20
-16.1
 30
0.0
 11
-4.362004
 21
-16.1
 31
0.0
  0
ARC
  5
31F
100
AcDbEntity
  8
PV
390
0
  6
CONTINUOUS
 62
     3
100
AcDbCircle
 10
-78.875
 20
-13.625
 30
0.0
 40
1.125
100
AcDbArc
 50
0.0
 51
180.0
  0
LINE
  5
320
100
AcDbEntity
  8
PV
390
0
  6
CONTINUOUS
 62
     3
100
AcDbLine
 10
-80.5
 20
-16.5
 30
0.0
 11
-80.0
 21
-16.5
 31
0.0
  0
LINE
  5
321
100
AcDbEntity
  8
PV
390
0
  6
CONTINUOUS
 62
     3
100
AcDbLine
 10
-80.5
 20
16.5
 30
0.0
 11
-80.0
 21
16.5
 31
0.0
  0
LINE
  5
322
100
AcDbEntity
  8
PV
390
0
  6
CONTINUOUS
 62
     3
100
AcDbLine
 10
-80.0
 20
16.5
 30
0.0
 11
-80.0
 21
-16.5
 31
0.0
  0
LINE
  5
323
100
AcDbEntity
  8
PV
390
0
  6
CONTINUOUS
 62
     3
100
AcDbLine
 10
-100.0
 20
20.0
 30
0.0
 11
-98.150986
 21
20.0
 31
0.0
  0
LINE
  5
324
100
AcDbEntity
  8
PV
390
0
  6
CONTINUOUS
 62
     3
100
AcDbLine
 10
-100.0
 20
-20.0
 30
0.0
 11
-98.150986
 21
-20.0
 31
0.0
  0
LINE
  5
325
100
AcDbEntity
  8
PV
390
0
  6
CONTINUOUS
 62
     3
100
AcDbLine
 10
-95.285126
 20
13.6
 30
0.0
 11
-82.174316
 21
13.6
 31
0.0
  0
LINE
  5
326
100
AcDbEntity
  8
PV
390
0
  6
CONTINUOUS
 62
     3
100
AcDbLine
 10
-95.285126
 20
-13.6
 30
0.0
 11
-82.174316
 21
-13.6
 31
0.0
  0
LINE
  5
327
100
AcDbEntity
  8
PV
390
0
  6
CONTINUOUS
 62
     3
100
AcDbLine
 10
-97.5
 20
12.0
 30
0.0
 11
-80.0
 21
12.0
 31
0.0
  0
LINE
  5
328
100
AcDbEntity
  8
PV
390
0
  6
CONTINUOUS
 62
     3
100
AcDbLine
 10
-97.5
 20
13.1
 30
0.0
 11
-97.5
 21
-13.1
 31
0.0
  0
LINE
  5
329
100
AcDbEntity
  8
PV
390
0
  6
CONTINUOUS
 62
     3
100
AcDbLine
 10
-100.0
 20
13.1
 30
0.0
 11
-97.5
 21
13.1
 31
0.0
  0
LINE
  5
32A
100
AcDbEntity
  8
PV
390
0
  6
CONTINUOUS
 62
     3
100
AcDbLine
 10
-96.702085
 20
18.888234
 30
0.0
 11
-95.28511
 21
13.600005
 31
0.0
  0
LINE
  5
32B
100
AcDbEntity
  8
PV
390
0
  6
CONTINUOUS
 62
     3
100
AcDbLine
 10
-96.702085
 20
-18.888234
 30
0.0
 11
-95.28511
 21
-13.600005
 31
0.0
  0
LINE
  5
32C
100
AcDbEntity
  8
PV
390
0
  6
CENTER
 62
   110
100
AcDbLine
 10
-110.0
 20
0.0
 30
0.0
 11
110.0
 21
0.0
 31
0.0
  0
LINE
  5
32D
100
AcDbEntity
  8
PV
390
0
  6
CONTINUOUS
 62
     3
100
AcDbLine
 10
-100.0
 20
20.0
 30
0.0
 11
-100.0
 21
-20.0
 31
0.0
  0
LINE
  5
32E
100
AcDbEntity
  8
PV
390
0
  6
CONTINUOUS
 62
     3
100
AcDbLine
 10
-80.5
 20
16.5
 30
0.0
 11
-82.174316
 21
13.6
 31
0.0
  0
LINE
  5
32F
100
AcDbEntity
  8
PV
390
0
  6
CONTINUOUS
 62
     3
100
AcDbLine
 10
-80.5
 20
-16.5
 30
0.0
 11
-82.174316
 21
-13.6
 31
0.0
  0
LINE
  5
330
100
AcDbEntity
  8
PV
390
0
  6
CONTINUOUS
 62
     3
100
AcDbLine
 10
-100.0
 20
-13.1
 30
0.0
 11
-97.5
 21
-13.1
 31
0.0
  0
LINE
  5
331
100
AcDbEntity
  8
PV
390
0
  6
CONTINUOUS
 62
     3
100
AcDbLine
 10
-97.5
 20
-12.0
 30
0.0
 11
-80.0
 21
-12.0
 31
0.0
  0
LINE
  5
332
100
AcDbEntity
  8
PV
390
0
  6
CONTINUOUS
 62
     3
100
AcDbLine
 10
100.0
 20
20.0
 30
0.0
 11
98.150986
 21
20.0
 31
0.0
  0
LINE
  5
333
100
AcDbEntity
  8
PV
390
0
  6
CONTINUOUS
 62
     3
100
AcDbLine
 10
100.0
 20
-20.0
 30
0.0
 11
98.150986
 21
-20.0
 31
0.0
  0
LINE
  5
334
100
AcDbEntity
  8
PV
390
0
  6
CONTINUOUS
 62
     3
100
AcDbLine
 10
95.285126
 20
13.6
 30
0.0
 11
82.174316
 21
13.6
 31
0.0
  0
LINE
  5
335
100
AcDbEntity
  8
PV
390
0
  6
CONTINUOUS
 62
     3
100
AcDbLine
 10
95.285126
 20
-13.6
 30
0.0
 11
82.174316
 21
-13.6
 31
0.0
  0
LINE
  5
336
100
AcDbEntity
  8
PV
390
0
  6
CONTINUOUS
 62
     3
100
AcDbLine
 10
97.5
 20
12.0
 30
0.0
 11
80.0
 21
12.0
 31
0.0
  0
LINE
  5
337
100
AcDbEntity
  8
PV
390
0
  6
CONTINUOUS
 62
     3
100
AcDbLine
 10
97.5
 20
13.1
 30
0.0
 11
97.5
 21
-13.1
 31
0.0
  0
LINE
  5
338
100
AcDbEntity
  8
PV
390
0
  6
CONTINUOUS
 62
     3
100
AcDbLine
 10
100.0
 20
13.1
 30
0.0
 11
97.5
 21
13.1
 31
0.0
  0
LINE
  5
339
100
AcDbEntity
  8
PV
390
0
  6
CONTINUOUS
 62
     3
100
AcDbLine
 10
96.702085
 20
18.888234
 30
0.0
 11
95.28511
 21
13.600005
 31
0.0
  0
LINE
  5
33A
100
AcDbEntity
  8
PV
390
0
  6
CONTINUOUS
 62
     3
100
AcDbLine
 10
96.702085
 20
-18.888234
 30
0.0
 11
95.28511
 21
-13.600005
 31
0.0
  0
LINE
  5
33B
100
AcDbEntity
  8
PV
390
0
  6
CONTINUOUS
 62
     3
100
AcDbLine
 10
97.5
 20
-12.0
 30
0.0
 11
80.0
 21
-12.0
 31
0.0
  0
LINE
  5
33C
100
AcDbEntity
  8
PV
390
0
  6
CONTINUOUS
 62
     3
100
AcDbLine
 10
100.0
 20
20.0
 30
0.0
 11
100.0
 21
-20.0
 31
0.0
  0
LINE
  5
33D
100
AcDbEntity
  8
PV
390
0
  6
CONTINUOUS
 62
     3
100
AcDbLine
 10
100.0
 20
-13.1
 30
0.0
 11
97.5
 21
-13.1
 31
0.0
  0
LINE
  5
33E
100
AcDbEntity
  8
PV
390
0
  6
CONTINUOUS
 62
     3
100
AcDbLine
 10
-77.75
 20
14.975
 30
0.0
 11
-77.75
 21
13.625
 31
0.0
  0
LINE
  5
33F
100
AcDbEntity
  8
PV
390
0
  6
CONTINUOUS
 62
     3
100
AcDbLine
 10
-75.5
 20
14.975
 30
0.0
 11
-75.5
 21
13.625
 31
0.0
  0
LINE
  5
340
100
AcDbEntity
  8
PV
390
0
  6
CONTINUOUS
 62
     3
100
AcDbLine
 10
-73.25
 20
14.975
 30
0.0
 11
-73.25
 21
13.625
 31
0.0
  0
LINE
  5
341
100
AcDbEntity
  8
PV
390
0
  6
CONTINUOUS
 62
     3
100
AcDbLine
 10
-71.0
 20
14.975
 30
0.0
 11
-71.0
 21
13.625
 31
0.0
  0
LINE
  5
342
100
AcDbEntity
  8
PV
390
0
  6
CONTINUOUS
 62
     3
100
AcDbLine
 10
-68.75
 20
14.975
 30
0.0
 11
-68.75
 21
13.625
 31
0.0
  0
LINE
  5
343
100
AcDbEntity
  8
PV
390
0
  6
CONTINUOUS
 62
     3
100
AcDbLine
 10
-66.5
 20
14.975
 30
0.0
 11
-66.5
 21
13.625
 31
0.0
  0
LINE
  5
344
100
AcDbEntity
  8
PV
390
0
  6
PHANTOM
 62
   110
100
AcDbLine
 10
-69.875
 20
12.5
 30
0.0
 11
0.725029
 21
12.5
 31
0.0
  0
LINE
  5
345
100
AcDbEntity
  8
PV
390
0
  6
PHANTOM
 62
   110
100
AcDbLine
 10
-67.625
 20
16.1
 30
0.0
 11
1.474419
 21
16.1
 31
0.0
  0
LINE
  5
346
100
AcDbEntity
  8
PV
390
0
  6
CENTER
 62
   110
100
AcDbLine
 10
-2.0034
 20
-20.0
 30
0.0
 11
5.04968
 21
20.0
 31
0.0
  0
LINE
  5
347
100
AcDbEntity
  8
PV
390
0
  6
CENTER
 62
   110
100
AcDbLine
 10
-5.04968
 20
-20.0
 30
0.0
 11
2.0034
 21
20.0
 31
0.0
  0
ARC
  5
348
100
AcDbEntity
  8
PV
390
0
  6
CONTINUOUS
 62
     3
100
AcDbCircle
 10
-98.150986
 20
18.5
 30
0.0
 40
1.5
100
AcDbArc
 50
15.000024
 51
89.999982
  0
ARC
  5
349
100
AcDbEntity
  8
PV
390
0
  6
CONTINUOUS
 62
     3
100
AcDbCircle
 10
-98.150986
 20
-18.5
 30
0.0
 40
1.5
100
AcDbArc
 50
270.000018
 51
344.999969
  0
ARC
  5
34A
100
AcDbEntity
  8
PV
390
0
  6
CONTINUOUS
 62
     3
100
AcDbCircle
 10
98.150986
 20
18.5
 30
0.0
 40
1.5
100
AcDbArc
 50
90.000018
 51
164.999976
  0
ARC
  5
34B
100
AcDbEntity
  8
PV
390
0
  6
CONTINUOUS
 62
     3
100
AcDbCircle
 10
98.150986
 20
-18.5
 30
0.0
 40
1.5
100
AcDbArc
 50
195.000031
 51
269.999982
  0
ARC
  5
34C
100
AcDbEntity
  8
PV
390
0
  6
CONTINUOUS
 62
     3
100
AcDbCircle
 10
-78.875
 20
13.625
 30
0.0
 40
1.125
100
AcDbArc
 50
180.0
 51
0.0
  0
ARC
  5
34D
100
AcDbEntity
  8
PV
390
0
  6
CONTINUOUS
 62
     3
100
AcDbCircle
 10
-76.625
 20
14.975
 30
0.0
 40
1.125
100
AcDbArc
 50
0.0
 51
180.0
  0
ARC
  5
34E
100
AcDbEntity
  8
PV
390
0
  6
CONTINUOUS
 62
     3
100
AcDbCircle
 10
-74.375
 20
13.625
 30
0.0
 40
1.125
100
AcDbArc
 50
180.0
 51
0.0
  0
ARC
  5
34F
100
AcDbEntity
  8
PV
390
0
  6
CONTINUOUS
 62
     3
100
AcDbCircle
 10
-72.125
 20
14.975
 30
0.0
 40
1.125
100
AcDbArc
 50
0.0
 51
180.0
  0
ARC
  5
350
100
AcDbEntity
  8
PV
390
0
  6
CONTINUOUS
 62
     3
100
AcDbCircle
 10
-69.875
 20
13.625
 30
0.0
 40
1.125
100
AcDbArc
 50
180.0
 51
0.0
  0
ARC
  5
351
100
AcDbEntity
  8
PV
390
0
  6
CONTINUOUS
 62
     3
100
AcDbCircle
 10
-67.625
 20
14.975
 30
0.0
 40
1.125
100
AcDbArc
 50
0.0
 51
180.0
  0
ENDSEC
  0
SECTION
  2
OBJECTS
  0
DICTIONARY
  5
19
100
AcDbDictionary
280
     0
281
     1
  3
ACAD_GROUP
350
1A
  3
ACAD_MLINESTYLE
350
1B
  3
ACAD_LAYOUT
350
1E
  3
ACAD_PLOTSETTINGS
350
22
  3
ACAD_PLOTSTYLENAME
350
1F
  0
DICTIONARY
  5
1A
102
{ACAD_REACTORS
330
19
102
}
100
AcDbDictionary
280
     0
281
     1
  0
DICTIONARY
  5
1B
102
{ACAD_REACTORS
330
19
102
}
100
AcDbDictionary
280
     0
281
     1
  3
Standard
350
1C
  0
MLINESTYLE
  5
1C
102
{ACAD_REACTORS
330
1B
102
}
100
AcDbMlineStyle
  2
Standard
 70
     0
  3

 62
     0
 51
90.0
 52
90.0
 71
     2
 49
0.5
 62
   256
  6
ByLayer
 49
-0.5
 62
   256
  6
ByLayer
  0
ACDBDICTIONARYWDFLT
  5
1F
102
{ACAD_REACTORS
330
19
102
}
100
AcDbDictionary
281
     1
  3
Normal
350
1D
100
AcDbDictionaryWithDefault
340
1D
  0
ACDBPLACEHOLDER
  5
1D
102
{ACAD_REACTORS
330
1F
102
}
  0
LAYOUT
  5
20
102
{ACAD_REACTORS
330
1E
102
}
100
AcDbPlotSettings
  1

  2

  4

  6

 40
0.0
 41
0.0
 42
0.0
 43
0.0
 44
0.0
 45
0.0
 46
0.0
 47
0.0
 48
0.0
 49
0.0
140
0.0
141
0.0
142
1.0
143
1.0
 70
  1024
 72
     0
 73
     0
 74
     0
  7

 75
     0
147
1.0
148
0.0
149
0.0
100
AcDbLayout
  1
Model
 70
     0
 71
     0
 10
0.0
 20
0.0
 11
0.0
 21
0.0
 12
0.0
 22
0.0
 32
0.0
 14
0.0
 24
0.0
 34
0.0
 15
0.0
 25
0.0
 35
0.0
146
0.0
 13
0.0
 23
0.0
 33
0.0
 16
0.0
 26
0.0
 36
0.0
 17
0.0
 27
0.0
 37
0.0
 76
     0
330
A
331
0
345
0
346
0
  0
LAYOUT
  5
21
102
{ACAD_REACTORS
330
1E
102
}
100
AcDbPlotSettings
  1

  2

  4

  6

 40
0.0
 41
0.0
 42
0.0
 43
0.0
 44
0.0
 45
0.0
 46
0.0
 47
0.0
 48
0.0
 49
0.0
140
0.0
141
0.0
142
1.0
143
1.0
 70
     0
 72
     0
 73
     0
 74
     0
  7

 75
     0
147
1.0
148
0.0
149
0.0
100
AcDbLayout
  1
Layout1
 70
     0
 71
     0
 10
0.0
 20
0.0
 11
0.0
 21
0.0
 12
0.0
 22
0.0
 32
0.0
 14
0.0
 24
0.0
 34
0.0
 15
0.0
 25
0.0
 35
0.0
146
0.0
 13
0.0
 23
0.0
 33
0.0
 16
0.0
 26
0.0
 36
0.0
 17
0.0
 27
0.0
 37
0.0
 76
     0
330
B
331
0
345
0
346
0
  0
DICTIONARY
  5
1E
102
{ACAD_REACTORS
330
19
102
}
100
AcDbDictionary
280
     0
281
     1
  3
Layout1
350
21
  3
Model
350
20
  0
DICTIONARY
  5
22
102
{ACAD_REACTORS
330
19
102
}
100
AcDbDictionary
280
     0
281
     1
  0
ENDSEC
  0
EOF
